Ergebnis 1 bis 1 von 1

Thema: Majimoji Rurumo [Jap-Dub][Ger-Sub][720p][HDTV]

Dieser Thread wurde noch nicht bewertet. Bewerte ihn doch, wenn er dir gefällt!
  1. #1
    Erfahrener Otaku Avatar von Kajiro
    Registriert seit
    Mar 2014
    Ort
    Irgendwo im Nirgendwo
    Beiträge
    213
    Punkte
    10.403
    Errungenschaften:
    10000 ErfahrungspunkteHikikomori

    Majimoji Rurumo [Jap-Dub][Ger-Sub][720p][HDTV]


    Majimoji Rurumo





    Kurzbeschreibung:
    Shibakis einziges Interesse gilt seinen Mitschülerinnen, weshalb er als der "perverseste" Junge der ganzen Schule bekannt ist und von ihnen gemieden wird. Als er durch Zufall ein Buch über Hexenbeschwörung findet, hält er es für ein schlechten Scherz, kann der Versuchung aber nicht widerstehen und beschwört zu seiner Verwunderung die junge Hexe Rurumo, die ihm im Austausch für seine Seele einen Wunsch gewährt. Er entscheidet sich ihr zu helfen, woraufhin sie ihm seine Schulden erlässt und plötzlich verschwindet.
    Einige Zeit ist seit dem unfreiwilligen Treffen der beiden vergangen und Shibaki wünscht sich, dass er Rurumo irgendwann wiedersehen wird; ein Wunsch der sich prompt erfüllt, als sie mit einer Bruchlandung vor ihm auf dem Boden erscheint. Er findet heraus, dass sie als Strafe dafür, dass sie seine Seele nicht angenommen hat, zu einem Dämon verbannt wurde, der ihr die Aufgabe erteilt hat, Shibaki dazu zu bringen, 666 Tickets zu benutzen. Diese Tickets erfüllen Wünsche und bis er diese nicht verwendet hat, ist es Rurumo auch nicht gestattet, wieder zu einer vollständigen Hexe zu werden. Was sie allerdings nicht weiß ist, dass diese Tickets das Leben ihres Benutzers verkürzen.


    Sprache: Japanisch
    Untertitel: Deutsch
    Folgen:12/12
    Größe:~215MB
    Format:MP4
    Auflösung: 1280x720
    Genre: Komödie
    Sub Gruppe: [P-A]


    Datei Info:
    Spoiler

    Video
    ID : 1
    Format : AVC
    Format/Info : Advanced Video Codec
    Format profile : [email protected]
    Format settings, CABAC : Yes
    Format settings, ReFrames : 4 frames
    Codec ID : avc1
    Codec ID/Info : Advanced Video Coding
    Duration : 24mn 0s
    Bit rate : 1 096 Kbps
    Maximum bit rate : 5 740 Kbps
    Width : 1 280 pixels
    Height : 720 pixels
    Display aspect ratio : 16:9
    Frame rate mode : Constant
    Frame rate : 23.976 fps
    Color space : YUV
    Chroma subsampling : 4:2:0
    Bit depth : 8 bits
    Scan type : Progressive
    Bits/(Pixel*Frame) : 0.050
    Stream size : 188 MiB (88%)
    Title : ˆ
    Writing library : x264 core 125 r2200 999b753


    Audio
    ID : 2
    Format : AAC
    Format/Info : Advanced Audio Codec
    Format profile : LC
    Codec ID : 40
    Duration : 24mn 0s
    Bit rate mode : Variable
    Bit rate : 152 Kbps
    Maximum bit rate : 194 Kbps
    Channel(s) : 2 channels
    Channel positions : Front: L R
    Sampling rate : 48.0 KHz
    Compression mode : Lossy
    Stream size : 26.1 MiB (12%)
    Encoded date : UTC 2014-07-10 19:39:29
    Tagged date : UTC 2014-07-10 19:39:30






    Geschützter Bereich - Bedanke dich beim Poster, um den Bereich sehen zu können
    Hier erfährst Du wie Du Dich bedanken kannst oder werde jetzt Premium Mitglied ab einer Spende von 5€ und erhalte sofortigen Zugriff auf den Downloadbereich!

    Inaktiver Uploader!

    Alle Re-Upload-Anfragen öffentlich im [Links sind nur für registrierte und aktivierte Nutzer sichtbar. Klicke hier um dich zu registrieren.] posten!

  2. 34 Benutzer sagen Danke:

    Antipott (25. November 2014),Athig (10. February 2015),Besen 48 (25. April 2015),Bitfire (11. May 2015),BlackDragon333 (6. September 2015),Chobits_inactive (25. October 2014),Chrissi89 (16. April 2015),Dragon02 (1. January 2015),drparnassus (31. October 2014),enfii (25. December 2014),Erquu (25. February 2015),fullmetal1995 (6. December 2014),gunnar1 (8. January 2015),Juckz (24. October 2014),Kartox (3. January 2015),krausi22 (5. March 2015),LawMugen (18. November 2014),Megamani (14. June 2015),midnighter (18. November 2014),PrinzDarknis (24. August 2015),prinzvegeta (17. November 2015),realmadridcf (16. August 2016),Ronae (24. October 2014),schwiemann (23. August 2015),Scypher (25. October 2014),SerienStream (8. May 2015),SheepEater (30. December 2014),Shiroe (31. October 2014),Shugyosha (29. November 2014),SONNYxq (5. March 2015),Strud_inactive (11. January 2015),Windwusel (18. April 2015),Xerx3s (27. December 2014)

Lesezeichen

Berechtigungen

  • Neue Themen erstellen: Nein
  • Themen beantworten: Nein
  • Anhänge hochladen: Nein
  • Beiträge bearbeiten: Nein
  •  

1 2 3 4 5 6 7 8 9 10 11 12 13 14 15 16 17 18 19 20 21 22 23 24 25 26 27 28 29 30 31 32 33 34 35 36 37 38 39 40 41 42 43 44 45 46 47 48 49 50 51 52 53 54 55 56 57 58 59 60 61 62 63 64 65 66 67 68 69 70 71 72 73 74 75 76 77 78 79 80 81 82 83 84 85 86 87 88 89 90 91 92 93 94 95 96 97 98 99 100 101 102 103 104 105 106 107 108 109 110 111 112 113 114 115 116 117 118 119 120 121 122 123 124 125 126 127 128 129 130 131 132 133 134 135 136 137 138 139 140 141 142 143 144 145 146 147 148 149 150 151 152 153 154 155 156 157 158