Ergebnis 1 bis 3 von 3

Thema: Mamoru-kun ni Megami no Shukufuku wo [Laufend][Jap-Dub][Ger-Sub][576p][DVD] - NaSu

Dieser Thread wurde noch nicht bewertet. Bewerte ihn doch, wenn er dir gefällt!
  1. #1
    Kami-sama Avatar von galudo
    Registriert seit
    Mar 2015
    Beiträge
    1.369
    Punkte
    25.903
    Errungenschaften:
    TomodachisTagger ProfiHyperaktivSenpaiGang Leader

    Mamoru-kun ni Megami no Shukufuku wo [Laufend][Jap-Dub][Ger-Sub][576p][DVD] - NaSu

    Mamoru-kun ni Megami no Shukufuku wo
    護くんに女神の祝福を!
    Venus to Mamoru!



    Kurzbeschreibung
    Alles beginnt mit dem kleinen Jungen Mamoru, der an der Beatrice-Schule aufgenommen wurde. Als er durch das Tor der Schule geht, sieht er Ayako, die ihm zugleich eine Liebeserklärung macht. Kurz darauf weiß es auch schon die ganze Schule und alle wollen den Freund der "Beatrice Hexe", wie sie wegen ihren Charaktereigenschaften genannt wird, sehen. Das Leben des kleinen Mamoru ist völlig zerstört. Denn Ayako ist für ihre unglaubliche Stärke, Brutalität und schlechte Laune, ohne auch nur ein Lächeln zu zeigen, bekannt.

    Wird Mamoru es schaffen sie zum Lachen zu bringen? Ist Mamoru wirklich nur ein ganz normaler Junge? Lasst euch überraschen!
    Format: MP4
    Sprache: Japanisch
    Untertitel: Deutsch
    Genre: Comedy, Romanze, Schule
    Größe: ~ 250 MB pro Folge | Gesamtgröße: 2,05 GB
    Dauer: ~ 24 Minuten
    Jahr: 2006 - 2007
    Video: 576p
    Source: DVD
    Subgroup / Releasegroup: Naked-Subs

    Hoster: Share-Online | Uploaded
    Passwort: siehe unten


    Datei-Info
    Spoiler
    Code:
    General
    Complete name                  : [NaSu] Mamoru-kun ni Megami no Shukufuku wo! - 01 [1024x576 h264 AAC ger-sub][A73D5036].mp4
    Format                         : MPEG-4
    Format profile                 : Base Media
    Codec ID                       : isom
    File size                      : 269 MiB
    Duration                       : 23mn 45s
    Overall bit rate mode          : Variable
    Overall bit rate               : 1 582 Kbps
    Encoded date                   : UTC 2015-12-18 20:16:53
    Tagged date                    : UTC 2015-12-18 20:16:53
    
    Video
    ID                             : 1
    Format                         : AVC
    Format/Info                    : Advanced Video Codec
    Format profile                 : [email protected]
    Format settings, CABAC         : Yes
    Format settings, ReFrames      : 14 frames
    Codec ID                       : avc1
    Codec ID/Info                  : Advanced Video Coding
    Duration                       : 23mn 45s
    Bit rate                       : 1 386 Kbps
    Maximum bit rate               : 11.2 Mbps
    Width                          : 1 024 pixels
    Height                         : 576 pixels
    Display aspect ratio           : 16:9
    Frame rate mode                : Constant
    Frame rate                     : 23.976 fps
    Color space                    : YUV
    Chroma subsampling             : 4:2:0
    Bit depth                      : 8 bits
    Scan type                      : Progressive
    Bits/(Pixel*Frame)             : 0.098
    Stream size                    : 235 MiB (88%)
    Writing library                : x264 core 146 r2538 121396c
    Encoding settings              : cabac=1 / ref=14 / deblock=1:1:1 / analyse=0x3:0x133 / me=umh / subme=10 / psy=1 / psy_rd=1.15:0.25 / mixed_ref=1 / me_range=24 / chroma_me=1 / trellis=2 / 8x8dct=1 / cqm=0 / deadzone=21,11 / fast_pskip=1 / chroma_qp_offset=-4 / threads=12 / lookahead_threads=3 / sliced_threads=0 / nr=0 / decimate=1 / interlaced=0 / bluray_compat=0 / constrained_intra=0 / bframes=10 / b_pyramid=2 / b_adapt=2 / b_bias=0 / direct=3 / weightb=1 / open_gop=0 / weightp=2 / keyint=240 / keyint_min=22 / scenecut=40 / intra_refresh=0 / rc_lookahead=60 / rc=crf / mbtree=1 / crf=17.0 / qcomp=0.60 / qpmin=0 / qpmax=69 / qpstep=4 / ip_ratio=1.40 / aq=1:0.65
    Encoded date                   : UTC 2015-12-18 17:56:29
    Tagged date                    : UTC 2015-12-18 20:16:55
    
    Audio
    ID                             : 2
    Format                         : AAC
    Format/Info                    : Advanced Audio Codec
    Format profile                 : LC
    Codec ID                       : 40
    Duration                       : 23mn 45s
    Bit rate mode                  : Variable
    Bit rate                       : 192 Kbps
    Maximum bit rate               : 200 Kbps
    Channel(s)                     : 2 channels
    Channel positions              : Front: L R
    Sampling rate                  : 48.0 KHz
    Compression mode               : Lossy
    Stream size                    : 32.6 MiB (12%)
    Language                       : Japanese
    Encoded date                   : UTC 2015-12-18 16:43:52
    Tagged date                    : UTC 2015-12-18 20:16:55
    
    Menu
    00:00:00.000                   : Einleitung
    00:02:38.992                   : 01 Die Liebe zu Beatrice
    00:21:44.052                   : Ending
    00:23:14.017                   : Vorschau
    


    Folgen 08 / 24 online
    Folgen einzeln ladbar



    || Download & Passwort ||


    Geschützter Bereich - Bedanke dich beim Poster, um den Bereich sehen zu können
    Hier erfährst Du wie Du Dich bedanken kannst oder werde jetzt Premium Mitglied ab einer Spende von 5€ und erhalte sofortigen Zugriff auf den Downloadbereich!

    Geändert von galudo (12. October 2016 um 18:21 Uhr) Grund: Folgenupdate
    SUPPORT UND REUP ANFRAGEN NUR >> [Links sind nur für registrierte und aktivierte Nutzer sichtbar. Klicke hier um dich zu registrieren.] <<
    Bitte IMMER den Thread-Link mitschicken.

  2. 12 Benutzer sagen Danke:

    Aisha (9. May 2016),Aluaran (18. April 2016),Asuka Langley (25. April 2016),carollatranny (2. January 2016),eraz (2. January 2016),Holyy (2. January 2016),iPwnage (25. April 2016),Loki92 (17. April 2016),merb (23. August 2016),midnighter (2. January 2016),Skeletti (18. April 2016),Tzi (4. January 2016)

  3. #2
    Kami-sama Avatar von galudo
    Registriert seit
    Mar 2015
    Beiträge
    1.369
    Punkte
    25.903
    Errungenschaften:
    TomodachisTagger ProfiHyperaktivSenpaiGang Leader

    AW: Mamoru-kun ni Megami no Shukufuku wo [Jap-Dub][Ger-Sub][576p][DVD] - NaSu

    Episode 06 und 07 Online
    SUPPORT UND REUP ANFRAGEN NUR >> [Links sind nur für registrierte und aktivierte Nutzer sichtbar. Klicke hier um dich zu registrieren.] <<
    Bitte IMMER den Thread-Link mitschicken.

  4. 1 Benutzer sagt Danke:

    eraz (3. July 2016)

  5. #3
    Kami-sama Avatar von galudo
    Registriert seit
    Mar 2015
    Beiträge
    1.369
    Punkte
    25.903
    Errungenschaften:
    TomodachisTagger ProfiHyperaktivSenpaiGang Leader

    AW: Mamoru-kun ni Megami no Shukufuku wo [Laufend][Jap-Dub][Ger-Sub][576p][DVD] - NaSu

    Episode 08 Online
    SUPPORT UND REUP ANFRAGEN NUR >> [Links sind nur für registrierte und aktivierte Nutzer sichtbar. Klicke hier um dich zu registrieren.] <<
    Bitte IMMER den Thread-Link mitschicken.

Stichworte

Lesezeichen

Berechtigungen

  • Neue Themen erstellen: Nein
  • Themen beantworten: Nein
  • Anhänge hochladen: Nein
  • Beiträge bearbeiten: Nein
  •  

1 2 3 4 5 6 7 8 9 10 11 12 13 14 15 16 17 18 19 20 21 22 23 24 25 26 27 28 29 30 31 32 33 34 35 36 37 38 39 40 41 42 43 44 45 46 47 48 49 50 51 52 53 54 55 56 57 58 59 60 61 62 63 64 65 66 67 68 69 70 71 72 73 74 75 76 77 78 79 80 81 82 83 84 85 86 87 88 89 90 91 92 93 94 95 96 97 98 99 100 101 102 103 104 105 106 107 108 109 110 111 112 113 114 115 116 117 118 119 120 121 122 123 124 125 126 127 128 129 130 131 132 133 134 135 136 137 138 139 140 141 142 143 144 145 146 147 148 149 150 151 152 153 154 155 156 157 158