Ergebnis 1 bis 1 von 1

Thema: Mangaka-san to Assistant-san to The Animation Specials [Jap-Dub][Ger-Sub][720p][DVD] - Amalgam

Dieser Thread wurde noch nicht bewertet. Bewerte ihn doch, wenn er dir gefällt!
  1. #1
    Soundtrackmensch Avatar von Kalchi
    Registriert seit
    Apr 2016
    Ort
    Österreich
    Beiträge
    241
    Punkte
    3.036
    Errungenschaften:
    HyperaktivGalerie Aussteller1000 ErfahrungspunkteTomodachisTagger Amateur

    Mangaka-san to Assistant-san to The Animation Specials [Jap-Dub][Ger-Sub][720p][DVD] - Amalgam


    Mangaka-san to Assistant-san to The Animation Specials [Jap-Dub][Ger-Sub][720p][DVD]






    Kurzbeschreibung:
    Zitat Zitat von Myanimelist.net
    Specials released with the Blu-ray/DVD volumes.


    Spieldauer: ~8Min/Folge
    Jahr: 2014
    Sprache: Japanisch
    Untertitel: Deutsch
    Größe pro Folge: ~120 MB
    Episodenanzahl: 6/6
    Format: MP4
    Auflösung: 720p (16:9)
    Videocodec: x264 (AVC)
    Audiocodec: AAC
    Subgruppe: Amalgam Fansubs
    Hoster: Uploaded


    MediaInfo
    Code:
    
    Format                      : MPEG-4
    Format profile              : Base Media
    Codec ID                    : isom
    File size                   : 125 MiB
    Duration                    : 10mn 11s
    Overall bit rate mode       : Variable
    Overall bit rate            : 1 718 Kbps
    Encoded date                : UTC 2014-11-26 16:24:14
    Tagged date                 : UTC 2014-11-26 16:24:14
    
    Video
    ID                          : 1
    Format                      : AVC
    Format/Info                 : Advanced Video Codec
    Format profile              : [email protected]
    Format settings, CABAC      : Yes
    Format settings, ReFrames   : 4 frames
    Codec ID                    : avc1
    Codec ID/Info               : Advanced Video Coding
    Duration                    : 10mn 10s
    Bit rate                    : 1 631 Kbps
    Maximum bit rate            : 9 320 Kbps
    Width                       : 1 280 pixels
    Height                      : 720 pixels
    Display aspect ratio        : 16:9
    Frame rate mode             : Constant
    Frame rate                  : 23.976 fps
    Color space                 : YUV
    Chroma subsampling          : 4:2:0
    Bit depth                   : 8 bits
    Scan type                   : Progressive
    Bits/(Pixel*Frame)          : 0.074
    Stream size                 : 119 MiB (95%)
    Title                       : Video
    Writing library             : x264 core 133 r2334 a3ac64b
    Encoding settings           : cabac=1 / ref=3 / deblock=1:0:0 / analyse=0x3:0x113 / me=hex / subme=7 / psy=1 / psy_rd=1.00:0.00 / mixed_ref=1 / me_range=16 / chroma_me=1 / trellis=1 / 8x8dct=1 / cqm=0 / deadzone=21,11 / fast_pskip=1 / chroma_qp_offset=-2 / threads=3 / lookahead_threads=1 / sliced_threads=0 / nr=0 / decimate=1 / interlaced=0 / bluray_compat=0 / constrained_intra=0 / bframes=3 / b_pyramid=2 / b_adapt=1 / b_bias=0 / direct=1 / weightb=1 / open_gop=0 / weightp=2 / keyint=250 / keyint_min=23 / scenecut=40 / intra_refresh=0 / rc_lookahead=40 / rc=crf / mbtree=1 / crf=19.0 / qcomp=0.60 / qpmin=0 / qpmax=69 / qpstep=4 / ip_ratio=1.40 / aq=1:1.00
    Encoded date                : UTC 2014-11-26 16:24:14
    Tagged date                 : UTC 2014-11-26 16:24:26
    
    Audio
    ID                          : 2
    Format                      : AAC
    Format/Info                 : Advanced Audio Codec
    Format profile              : HE-AAC / LC
    Codec ID                    : 40
    Duration                    : 10mn 11s
    Bit rate mode               : Variable
    Bit rate                    : 85.1 Kbps
    Maximum bit rate            : 100 Kbps
    Channel(s)                  : 2 channels
    Channel positions           : Front: L R
    Sampling rate               : 48.0 KHz / 24.0 KHz
    Compression mode            : Lossy
    Stream size                 : 6.20 MiB (5%)
    Language                    : Japanese
    Encoded date                : UTC 2014-11-26 16:24:25
    Tagged date                 : UTC 2014-11-26 16:24:26
    
    





    Geschützter Bereich - Bedanke dich beim Poster, um den Bereich sehen zu können
    Hier erfährst Du wie Du Dich bedanken kannst oder werde jetzt Premium Mitglied ab einer Spende von 5€ und erhalte sofortigen Zugriff auf den Downloadbereich!

    [Links sind nur für registrierte und aktivierte Nutzer sichtbar. Klicke hier um dich zu registrieren.]
    Geändert von Kalchi (6. September 2016 um 16:26 Uhr) Grund: Filecrypt.cc

    Meine Animeliste: [Links sind nur für registrierte und aktivierte Nutzer sichtbar. Klicke hier um dich zu registrieren.] :D
    Mein [Links sind nur für registrierte und aktivierte Nutzer sichtbar. Klicke hier um dich zu registrieren.] (bald wieder aktiv :D)
    Re-Upload/Mirror Anfragen einfach per Pn (Mit Threadlink)
    „In every age, and every world, the strong sharpen their fangs while the weak polish their wits.“ ~ Sora (No Game no Life)

  2. 9 Benutzer sagen Danke:

    chopper23 (24. August 2016),CKSI (24. August 2016),exterminus (24. August 2016),fichtlwichtl (17. October 2016),heikobaer (25. August 2016),helloplaya (31. August 2016),kenschi (15. September 2016),merb (24. August 2016),Nanatzusaya (24. August 2016)

Lesezeichen

Berechtigungen

  • Neue Themen erstellen: Nein
  • Themen beantworten: Nein
  • Anhänge hochladen: Nein
  • Beiträge bearbeiten: Nein
  •  

1 2 3 4 5 6 7 8 9 10 11 12 13 14 15 16 17 18 19 20 21 22 23 24 25 26 27 28 29 30 31 32 33 34 35 36 37 38 39 40 41 42 43 44 45 46 47 48 49 50 51 52 53 54 55 56 57 58 59 60 61 62 63 64 65 66 67 68 69 70 71 72 73 74 75 76 77 78 79 80 81 82 83 84 85 86 87 88 89 90 91 92 93 94 95 96 97 98 99 100 101 102 103 104 105 106 107 108 109 110 111 112 113 114 115 116 117 118 119 120 121 122 123 124 125 126 127 128 129 130 131 132 133 134 135 136 137 138 139 140 141 142 143 144 145 146 147 148 149 150 151 152 153 154 155 156 157 158