Ergebnis 1 bis 1 von 1

Thema: Manyuu Hiken-chou [Jap-Dub][Ger-Sub][720p][BluRay] - Ecchi-Subs

Dieser Thread wurde noch nicht bewertet. Bewerte ihn doch, wenn er dir gefällt!
  1. #1
    Uploader Avatar von Filbo11
    Registriert seit
    Jan 2015
    Beiträge
    931
    Punkte
    17.281
    Errungenschaften:
    TomodachisErste Gruppe1 Jahr registriertCreated Album picturesTagger First Class

    Manyuu Hiken-chou [Jap-Dub][Ger-Sub][720p][BluRay] - Ecchi-Subs

    Manyuu Hiken-chou
    魔乳秘剣帖




    Beschreibung

    Wir befinden uns in der Taiheimeji Ära. Eine Epoche, in der das Tokugawa-Shogunat regiert. Innerhalb dieses Shogunats gibt es eine Gruppe von Kriegern, die die Regierung unterstützt. Diese Krieger gehören dem Manyuu Clan an.

    In dieser Ära bedeuten Brüste alles, wer also über große Brüste verfügt, kann sich sicher sein, sehr populär zu sein und mit Reichtum überhäuft zu werden. Verfügt man nicht über die richtigen Proportionen wird man schon fast gar nicht mehr als Mensch angesehen. Mitglieder des Manyuu Clans setzen sich für eine Welt mit großen Brüsten ein. Es heißt, dass der Clan über eine Schriftrolle verfügt, in der Techniken niedergeschrieben sind, mit deren Hilfe man große und schöne Brüste wachsen lassen kann...

    Format: mp4
    Dauer: ca. 24 min
    Größe: ca. ~350 MB
    Episodenanzahl: 12/12
    Sprache: Japanisch
    Untertitel: Deutsch
    Group: [Ecchi-Subs]
    Hoster: Uploaded.net & Share-Online.biz
    kein PW


    Screenshots & MediaInfo

    Spoiler
    [Links sind nur für registrierte und aktivierte Nutzer sichtbar. Klicke hier um dich zu registrieren.]

    Code:
    General
    Complete name               : [Ecchi-Subs]Manyuu Hiken-chou - 01 - Chifusa Defects[JapDub][GerSub][720p][Bluray].mp4
    Format                      : MPEG-4
    Format profile              : Base Media
    Codec ID                    : isom (isom/avc1)
    File size                   : 350 MiB
    Duration                    : 23 min
    Overall bit rate mode       : Variable
    Overall bit rate            : 2 071 kb/s
    Encoded date                : UTC 2012-07-06 09:18:42
    Tagged date                 : UTC 2012-07-06 09:18:42
    
    Video
    ID                          : 1
    Format                      : AVC
    Format/Info                 : Advanced Video Codec
    Format profile              : [email protected]
    Format settings, CABAC      : Yes
    Format settings, ReFrames   : 4 frames
    Codec ID                    : avc1
    Codec ID/Info               : Advanced Video Coding
    Duration                    : 23 min
    Bit rate                    : 1 903 kb/s
    Maximum bit rate            : 18.9 Mb/s
    Width                       : 1 280 pixels
    Height                      : 720 pixels
    Display aspect ratio        : 16:9
    Frame rate mode             : Constant
    Frame rate                  : 23.976 (24000/1001) FPS
    Color space                 : YUV
    Chroma subsampling          : 4:2:0
    Bit depth                   : 8 bits
    Scan type                   : Progressive
    Bits/(Pixel*Frame)          : 0.086
    Stream size                 : 321 MiB (92%)
    Writing library             : x264 core 120 r2164 da19765
    Encoding settings           : cabac=1 / ref=3 / deblock=1:0:0 / analyse=0x3:0x113 / me=hex / subme=7 / psy=1 / psy_rd=1.00:0.00 / mixed_ref=1 / me_range=16 / chroma_me=1 / trellis=1 / 8x8dct=1 / cqm=0 / deadzone=21,11 / fast_pskip=1 / chroma_qp_offset=-2 / threads=6 / sliced_threads=0 / nr=0 / decimate=1 / interlaced=0 / bluray_compat=0 / constrained_intra=0 / bframes=3 / b_pyramid=2 / b_adapt=1 / b_bias=0 / direct=1 / weightb=1 / open_gop=0 / weightp=2 / keyint=240 / keyint_min=23 / scenecut=40 / intra_refresh=0 / rc_lookahead=40 / rc=2pass / mbtree=1 / bitrate=1903 / ratetol=1.0 / qcomp=0.60 / qpmin=0 / qpmax=69 / qpstep=4 / cplxblur=20.0 / qblur=0.5 / ip_ratio=1.40 / aq=1:1.00
    Encoded date                : UTC 2012-07-06 09:18:42
    Tagged date                 : UTC 2012-07-06 09:18:45
    
    Audio
    ID                          : 2
    Format                      : AAC
    Format/Info                 : Advanced Audio Codec
    Format profile              : LC
    Codec ID                    : 40
    Duration                    : 23 min
    Bit rate mode               : Variable
    Bit rate                    : 165 kb/s
    Maximum bit rate            : 216 kb/s
    Channel(s)                  : 2 channels
    Channel positions           : Front: L R
    Sampling rate               : 48.0 kHz
    Frame rate                  : 46.875 FPS (1024 spf)
    Compression mode            : Lossy
    Stream size                 : 27.9 MiB (8%)
    Encoded date                : UTC 2012-07-06 09:18:44
    Tagged date                 : UTC 2012-07-06 09:18:45


    Alle Mirrors untereinander kompatibel
    Folgen einzeln ladbar



    Download
    Geschützter Bereich - Bedanke dich beim Poster, um den Bereich sehen zu können
    Hier erfährst Du wie Du Dich bedanken kannst oder werde jetzt Premium Mitglied ab einer Spende von 5€ und erhalte sofortigen Zugriff auf den Downloadbereich!


    [Links sind nur für registrierte und aktivierte Nutzer sichtbar. Klicke hier um dich zu registrieren.]

    Ich wäre allen sehr dankbar, die mir gravierende Fehler in meinen Releases per PN melden

  2. 3 Benutzer sagen Danke:

    Flowbow (5. November 2016),Neyzu (12. October 2016),Vivere (2. December 2016)

Stichworte

Lesezeichen

Berechtigungen

  • Neue Themen erstellen: Nein
  • Themen beantworten: Nein
  • Anhänge hochladen: Nein
  • Beiträge bearbeiten: Nein
  •  

1 2 3 4 5 6 7 8 9 10 11 12 13 14 15 16 17 18 19 20 21 22 23 24 25 26 27 28 29 30 31 32 33 34 35 36 37 38 39 40 41 42 43 44 45 46 47 48 49 50 51 52 53 54 55 56 57 58 59 60 61 62 63 64 65 66 67 68 69 70 71 72 73 74 75 76 77 78 79 80 81 82 83 84 85 86 87 88 89 90 91 92 93 94 95 96 97 98 99 100 101 102 103 104 105 106 107 108 109 110 111 112 113 114 115 116 117 118 119 120 121 122 123 124 125 126 127 128 129 130 131 132 133 134 135 136 137 138 139 140 141 142 143 144 145 146 147 148 149 150 151 152 153 154 155 156 157 158