Ergebnis 1 bis 2 von 2

Thema: Maoyuu Maou Yuusha [Jap-Dub][Ger-Sub][720p][HDTV]

Dieser Thread wurde noch nicht bewertet. Bewerte ihn doch, wenn er dir gefällt!
  1. #1
    United we Stand Avatar von 00Ryuji00
    Registriert seit
    Oct 2012
    Beiträge
    3.896
    Punkte
    99.716
    Errungenschaften:
    TomodachisGang LeaderHikikomoriTagger Amateur50000 Erfahrungspunkte

    Maoyuu Maou Yuusha [Jap-Dub][Ger-Sub][720p][HDTV]

    Maoyuu Maou Yuusha
    まおゆう魔王勇者
    Maoyu
    Maoyu Maou Yusha
    Archenemy and Hero






    Kurzbeschreibung:
    Die Geschichte spielt in einer Welt, die von einem großen Krieg von Menschen gegen Dämonen regiert wird. Irgendwann schafft ein Held der Menschen es, sich in das Schloss der Dämonenkönigin zu schleichen. Anstatt gegen den Helden der Menschen zu kämpfen, schließt die Königin eine Allianz mit dem Helden. Sie erklärt ihm, warum ein plötzliches Ende des Krieges noch mehr Chaos in die Welt bringen würde, da sich vor langer Zeit die Menschen schon mal mit den Dämonen vereinigt haben, um einen gemeinsamen Feind zu besiegen, was danach dazu führte, dass sich die Menschen gegenseitig bekämpften. Solche ähnlichen Probleme spielen sich derzeit in der Welt der Dämonen ab. Beeindruckt von ihren Worten, schließt sich der Held mit der Dämonenkönigin zusammen, um einen Plan zu entwerfen, der dazu führen soll, dass die Menschen und Dämonen in Frieden und Wohlstand leben können.


    Sprache: Japanisch
    Untertitel: Deutsch
    Episodenanzahl: 12/12
    Format: .mp4
    Auflösung: 720p (16:9)
    Codec: x264
    Gruppe: Chinurarete-Subs
    Hoster: Share-Online ; Uploaded


    Datei Info:
    Spoiler

    Code:
    
    
    Format                                   : MPEG-4
    Format profile                           : Base Media
    Codec ID                                 : isom
    File size                                : 388 MiB
    Duration                                 : 23mn 40s
    Overall bit rate mode                    : Variable
    Overall bit rate                         : 2 290 Kbps
    Encoded date                             : UTC 2013-01-09 00:41:39
    Tagged date                              : UTC 2013-01-09 00:41:39
    Writing application                      : Yamb 2.1.0.0 [http://yamb.unite-video.com]
    
    Video
    ID                                       : 1
    Format                                   : AVC
    Format/Info                              : Advanced Video Codec
    Format profile                           : [email protected]
    Format settings, CABAC                   : Yes
    Format settings, ReFrames                : 4 frames
    Codec ID                                 : avc1
    Codec ID/Info                            : Advanced Video Coding
    Duration                                 : 23mn 40s
    Bit rate                                 : 2 158 Kbps
    Maximum bit rate                         : 12.9 Mbps
    Width                                    : 1 272 pixels
    Height                                   : 720 pixels
    Display aspect ratio                     : 16:9
    Frame rate mode                          : Constant
    Frame rate                               : 23.976 fps
    Color space                              : YUV
    Chroma subsampling                       : 4:2:0
    Bit depth                                : 8 bits
    Scan type                                : Progressive
    Bits/(Pixel*Frame)                       : 0.098
    Stream size                              : 365 MiB (94%)
    Writing library                          : x264 core 125 r2200+677M 3a754e7
    Encoding settings                        : cabac=1 / ref=3 / deblock=1:0:0 / analyse=0x3:0x113 / me=umh / subme=7 / psy=1 / fade_compensate=0.00 / psy_rd=1.00:0.00 / mixed_ref=1 / me_range=16 / chroma_me=1 / trellis=1 / 8x8dct=1 / cqm=0 / deadzone=21,11 / fast_pskip=1 / chroma_qp_offset=-2 / threads=6 / lookahead_threads=1 / sliced_threads=0 / nr=0 / decimate=1 / interlaced=0 / bluray_compat=0 / constrained_intra=0 / fgo=0 / bframes=3 / b_pyramid=2 / b_adapt=1 / b_bias=0 / direct=1 / weightb=1 / open_gop=0 / weightp=2 / keyint=240 / keyint_min=23 / scenecut=40 / intra_refresh=0 / rc=crf / mbtree=0 / crf=20.0000 / qcomp=0.60 / qpmin=0 / qpmax=69 / qpstep=4 / ip_ratio=1.40 / pb_ratio=1.30 / aq=1:1.20
    Encoded date                             : UTC 2013-01-09 23:36:46
    Tagged date                              : UTC 2013-01-09 00:41:56
    
    Audio
    ID                                       : 2
    Format                                   : AAC
    Format/Info                              : Advanced Audio Codec
    Format profile                           : LC
    Codec ID                                 : 40
    Duration                                 : 23mn 40s
    Bit rate mode                            : Variable
    Bit rate                                 : 128 Kbps
    Maximum bit rate                         : 143 Kbps
    Channel count                            : 2 channels
    Channel positions                        : Front: L R
    Sampling rate                            : 44.1 KHz
    Compression mode                         : Lossy
    Stream size                              : 21.7 MiB (6%)
    Encoded date                             : UTC 2013-01-09 00:41:55
    Tagged date                              : UTC 2013-01-09 00:41:56
    
    






    Geschützter Bereich - Bedanke dich beim Poster, um den Bereich sehen zu können
    Hier erfährst Du wie Du Dich bedanken kannst oder werde jetzt Premium Mitglied ab einer Spende von 5€ und erhalte sofortigen Zugriff auf den Downloadbereich!

    !!!Alle Anliegen bezüglich Uploads werden nur mit direktem Threadlink zum Angebot bearbeitet!!!

    Re-Uploadanfragen nur per PN - Ihr könnt mir auch Listen schicken

    Re-Uploads erfolgen meist innerhalb 24h, kann aber auch bis zu 7 Tage dauern

    [Links sind nur für registrierte und aktivierte Nutzer sichtbar. Klicke hier um dich zu registrieren.] | [Links sind nur für registrierte und aktivierte Nutzer sichtbar. Klicke hier um dich zu registrieren.] | >[Links sind nur für registrierte und aktivierte Nutzer sichtbar. Klicke hier um dich zu registrieren.]<
    [Links sind nur für registrierte und aktivierte Nutzer sichtbar. Klicke hier um dich zu registrieren.]

  2. 28 Benutzer sagen Danke:

    bohne (12. November 2015),Bunyos (6. October 2015),chopper23 (15. July 2016),Drezzo (14. August 2015),dzeko (4. February 2016),eraz (10. August 2015),Etzlo (22. February 2016),Fox Faram (9. August 2015),Griever (22. January 2016),HappyTree (2. January 2016),HerzogZepar (23. October 2015),Hyro (25. October 2015),Kurzey (22. August 2015),Lamperouge (17. January 2016),michael187 (10. November 2016),midnighter (12. August 2015),Neyzu (13. November 2016),old nick (8. August 2015),paulito.1 (5. October 2015),Pure (24. July 2016),saarx (16. March 2016),Sergej10 (14. March 2016),Shadow7525 (1. October 2016),SONNYxq (8. August 2015),tokage (6. January 2016),Wölfchen (8. August 2015),xhellsingx (9. November 2015),YamiXGhost (9. August 2015)

  3. #2
    United we Stand Avatar von 00Ryuji00
    Registriert seit
    Oct 2012
    Beiträge
    3.896
    Punkte
    99.716
    Errungenschaften:
    TomodachisGang LeaderHikikomoriTagger Amateur50000 Erfahrungspunkte

    AW: Maoyuu Maou Yuusha [Jap-Dub][Ger-Sub][720p][HDTV]

    Update: Dateien auf Wunsch wieder online.
    !!!Alle Anliegen bezüglich Uploads werden nur mit direktem Threadlink zum Angebot bearbeitet!!!

    Re-Uploadanfragen nur per PN - Ihr könnt mir auch Listen schicken

    Re-Uploads erfolgen meist innerhalb 24h, kann aber auch bis zu 7 Tage dauern

    [Links sind nur für registrierte und aktivierte Nutzer sichtbar. Klicke hier um dich zu registrieren.] | [Links sind nur für registrierte und aktivierte Nutzer sichtbar. Klicke hier um dich zu registrieren.] | >[Links sind nur für registrierte und aktivierte Nutzer sichtbar. Klicke hier um dich zu registrieren.]<
    [Links sind nur für registrierte und aktivierte Nutzer sichtbar. Klicke hier um dich zu registrieren.]

Lesezeichen

Berechtigungen

  • Neue Themen erstellen: Nein
  • Themen beantworten: Nein
  • Anhänge hochladen: Nein
  • Beiträge bearbeiten: Nein
  •  

1 2 3 4 5 6 7 8 9 10 11 12 13 14 15 16 17 18 19 20 21 22 23 24 25 26 27 28 29 30 31 32 33 34 35 36 37 38 39 40 41 42 43 44 45 46 47 48 49 50 51 52 53 54 55 56 57 58 59 60 61 62 63 64 65 66 67 68 69 70 71 72 73 74 75 76 77 78 79 80 81 82 83 84 85 86 87 88 89 90 91 92 93 94 95 96 97 98 99 100 101 102 103 104 105 106 107 108 109 110 111 112 113 114 115 116 117 118 119 120 121 122 123 124 125 126 127 128 129 130 131 132 133 134 135 136 137 138 139 140 141 142 143 144 145 146 147 148 149 150 151 152 153 154 155 156 157 158