Ergebnis 1 bis 1 von 1

Thema: Maria Holic Alive [JapDub][GerSub][720p][BluRay]

Dieser Thread wurde noch nicht bewertet. Bewerte ihn doch, wenn er dir gefällt!
  1. #1
    Kami-sama Avatar von galudo
    Registriert seit
    Mar 2015
    Beiträge
    1.369
    Punkte
    25.903
    Errungenschaften:
    TomodachisTagger ProfiHyperaktivSenpaiGang Leader

    Maria Holic Alive [JapDub][GerSub][720p][BluRay]

    Maria Holic Alive
    まりあ†ほりっく あらいぶ
    Maria Holic 2



    Kurzbeschreibung
    Kanako treibt noch immer ihr Unwesen in Ame no Kisaki. Schwimmbäder färben sich rot, blutige Handabdrücke erscheinen an Wänden und das alles nur, weil sie jedes Mal Nasenbluten bekommt, wenn sie an ihre Mitschülerinnen denkt. Nur an ihrer ZimmergenossinMariya scheint sie kein Interesse zu haben. Verständlich, denn hinter der Musterschülerin versteckt sich ein hinterhältiger und manipulativer Junge, dem nichts mehr Spaß macht, als die arme Kanako zu quälen. Trotzdem versucht sie mit allen Mitteln ihre Lebenspartnerin zu finden.
    Format: MP4
    Sprache: Japanisch
    Untertitel: Deutsch
    Genre: Comedy, Schule, Slapstick, Yuri
    Größe: ~ 390 MB pro Folge | Gesamtgröße: 4,4 GB
    Dauer: ~ 25 Minuten
    Jahr: 2011
    Video: 720p
    Source: BluRay
    Subgroup / Releasegroup: Shinigami-Neko-Subs

    Hoster: Share-Online | Uploaded
    Passwort: siehe unten


    Datei-Info
    Spoiler
    Code:
    General
    Format                         : MPEG-4
    Format profile                 : Base Media
    Codec ID                       : isom
    File size                      : 273 MiB
    Duration                       : 25mn 27s
    Overall bit rate mode          : Variable
    Overall bit rate               : 1 500 Kbps
    
    Video
    ID                             : 1
    Format                         : AVC
    Format/Info                    : Advanced Video Codec
    Format profile                 : [email protected]
    Format settings, CABAC         : Yes
    Format settings, ReFrames      : 4 frames
    Codec ID                       : avc1
    Codec ID/Info                  : Advanced Video Coding
    Duration                       : 25mn 27s
    Bit rate                       : 1 342 Kbps
    Maximum bit rate               : 16.5 Mbps
    Width                          : 1 280 pixels
    Height                         : 720 pixels
    Display aspect ratio           : 16:9
    Frame rate mode                : Constant
    Frame rate                     : 23.976 fps
    Color space                    : YUV
    Chroma subsampling             : 4:2:0
    Bit depth                      : 8 bits
    Scan type                      : Progressive
    Bits/(Pixel*Frame)             : 0.061
    Stream size                    : 244 MiB (89%)
    Writing library                : x264 core 116 r2074 2641b9e
    Encoding settings              : cabac=1 / ref=3 / deblock=1:0:0 / analyse=0x3:0x113 / me=hex / subme=7 / psy=1 / psy_rd=1.00:0.00 / mixed_ref=1 / me_range=16 / chroma_me=1 / trellis=1 / 8x8dct=1 / cqm=0 / deadzone=21,11 / fast_pskip=1 / chroma_qp_offset=-2 / threads=6 / sliced_threads=0 / nr=0 / decimate=1 / interlaced=0 / bluray_compat=0 / constrained_intra=0 / bframes=3 / b_pyramid=2 / b_adapt=1 / b_bias=0 / direct=1 / weightb=1 / open_gop=0 / weightp=2 / keyint=250 / keyint_min=23 / scenecut=40 / intra_refresh=0 / rc_lookahead=40 / rc=2pass / mbtree=1 / bitrate=1342 / ratetol=1.0 / qcomp=0.60 / qpmin=0 / qpmax=69 / qpstep=4 / cplxblur=20.0 / qblur=0.5 / vbv_maxrate=31250 / vbv_bufsize=31250 / nal_hrd=none / ip_ratio=1.40 / aq=1:1.00
    
    Audio
    ID                             : 2
    Format                         : AAC
    Format/Info                    : Advanced Audio Codec
    Format profile                 : LC
    Codec ID                       : 40
    Duration                       : 25mn 27s
    Bit rate mode                  : Variable
    Bit rate                       : 155 Kbps
    Maximum bit rate               : 217 Kbps
    Channel(s)                     : 2 channels
    Channel positions              : Front: L R
    Sampling rate                  : 48.0 KHz
    Compression mode               : Lossy
    Stream size                    : 28.3 MiB (10%)
    


    Folgen 12 / 12 online
    Folgen einzeln ladbar



    || Download & Passwort ||
    Geschützter Bereich - Bedanke dich beim Poster, um den Bereich sehen zu können
    Hier erfährst Du wie Du Dich bedanken kannst oder werde jetzt Premium Mitglied ab einer Spende von 5€ und erhalte sofortigen Zugriff auf den Downloadbereich!
    Geändert von galudo (21. April 2016 um 18:23 Uhr)
    SUPPORT UND REUP ANFRAGEN NUR >> [Links sind nur für registrierte und aktivierte Nutzer sichtbar. Klicke hier um dich zu registrieren.] <<
    Bitte IMMER den Thread-Link mitschicken.

  2. 21 Benutzer sagen Danke:

    Akio (7. February 2016),Akulti (13. January 2016),Bloodywaffe (4. February 2016),Conopas (14. August 2015),Corntendo (4. March 2016),dreambird1973 (12. January 2016),felix043 (30. April 2016),Ghostraven (31. August 2015),huntercity (10. August 2015),krausi22 (6. September 2015),Linpos (18. July 2015),Lux49 (5. January 2016),manuel4193 (9. July 2016),midnighter (5. July 2015),monsterhunter93 (18. October 2015),prinzvegeta (6. July 2015),sabs0686 (7. October 2015),The_Other_One (5. October 2015),thor17 (10. October 2015),Tidus18 (14. January 2016),xRei (7. November 2016)

Stichworte

Lesezeichen

Berechtigungen

  • Neue Themen erstellen: Nein
  • Themen beantworten: Nein
  • Anhänge hochladen: Nein
  • Beiträge bearbeiten: Nein
  •  

1 2 3 4 5 6 7 8 9 10 11 12 13 14 15 16 17 18 19 20 21 22 23 24 25 26 27 28 29 30 31 32 33 34 35 36 37 38 39 40 41 42 43 44 45 46 47 48 49 50 51 52 53 54 55 56 57 58 59 60 61 62 63 64 65 66 67 68 69 70 71 72 73 74 75 76 77 78 79 80 81 82 83 84 85 86 87 88 89 90 91 92 93 94 95 96 97 98 99 100 101 102 103 104 105 106 107 108 109 110 111 112 113 114 115 116 117 118 119 120 121 122 123 124 125 126 127 128 129 130 131 132 133 134 135 136 137 138 139 140 141 142 143 144 145 146 147 148 149 150 151 152 153 154 155 156 157 158