Ergebnis 1 bis 2 von 2

Thema: Marmalade Boy [Jap-Dub][Ger-Sub][480p][DVDRip] - ASS

Dieser Thread wurde noch nicht bewertet. Bewerte ihn doch, wenn er dir gefällt!
  1. #1
    Kami-sama Avatar von galudo
    Registriert seit
    Mar 2015
    Beiträge
    1.371
    Punkte
    26.002
    Errungenschaften:
    TomodachisTagger ProfiHyperaktivSenpaiGang Leader

    Marmalade Boy [Jap-Dub][Ger-Sub][480p][DVDRip] - ASS

    Marmalade Boy
    ママレード・ボーイ



    Kurzbeschreibung
    Eines Tages eröffnen Miki Koishikawas Eltern ihrer Tochter, dass sie sich scheiden lassen und stattdessen den jeweils anderen Partner eines für Miki völlig fremden Ehepaares, den Matsuuras, heiraten wollen. Für Miki bricht dadurch eine Welt zusammen. Sie hofft jedoch, wenigstens das andere Ehepaar umstimmen zu können, da jeder Versuch bei ihren eigenen verrückten Eltern sowieso zum Scheitern verurteilt ist. Als aber auch das nichts nützt und stattdessen sogar der gutaussehende Sohn der Matsuuras, Yuu, nichts dagegen hat, kann Miki nicht anders, als der chaotischen Ehe zuzustimmen. So beginnt für sie ein neues Leben in dieser zusammengewürfelten sechsköpfigen Familie. Es ist aber auch der Beginn einer aufregenden Liebesgeschichte für Miki! Nicht nur Yuu, der die meiste Zeit unfreundlich zu ihr ist, macht ihr Avancen, sonden auch ihre erste Liebe, Ginta, der ihr einst einen Korb gab, bleibt bei dem plötzlich auftauchenden Rivalen nicht ruhig. Mit wem wird Miki wohl am Ende zusammenkommen?
    Format: MP4
    Sprache: Japanisch
    Untertitel: Deutsch
    Genre: Comedy, Drama, Family, Romantik, Romanze, Schule
    Größe: ~ 280 MB pro Folge | Gesamtgröße: 0,84 GB
    Dauer: ~ 24 Minuten
    Jahr: 1994-1995
    Video: 480p
    Source: DVDRip
    Subgroup / Releasegroup: AoiSora-Subs

    Hoster: Share-Online | Uploaded
    Passwort: siehe unten
    Onlinestatus:


    Datei-Info
    Spoiler
    Code:
    General
    Complete name                  : [ASS]Marmalade Boy - 01(640x480 h264 AAC)[163EF2A5].mp4
    Format                         : MPEG-4
    Format profile                 : Base Media
    Codec ID                       : isom
    File size                      : 282 MiB
    Duration                       : 24mn 12s
    Overall bit rate mode          : Variable
    Overall bit rate               : 1 630 Kbps
    Encoded date                   : UTC 2015-10-21 18:11:20
    Tagged date                    : UTC 2015-10-21 18:11:20
    Writing application            : Yamb 2.1.0.0 [http://yamb.unite-video.com]
    
    Video
    ID                             : 1
    Format                         : AVC
    Format/Info                    : Advanced Video Codec
    Format profile                 : [email protected]
    Format settings, CABAC         : Yes
    Format settings, ReFrames      : 9 frames
    Codec ID                       : avc1
    Codec ID/Info                  : Advanced Video Coding
    Duration                       : 24mn 11s
    Bit rate                       : 1 507 Kbps
    Maximum bit rate               : 4 425 Kbps
    Width                          : 640 pixels
    Height                         : 480 pixels
    Display aspect ratio           : 4:3
    Frame rate mode                : Constant
    Frame rate                     : 23.976 fps
    Color space                    : YUV
    Chroma subsampling             : 4:2:0
    Bit depth                      : 8 bits
    Scan type                      : Progressive
    Bits/(Pixel*Frame)             : 0.205
    Stream size                    : 261 MiB (92%)
    Writing library                : x264 core 148 r2638 7599210
    Encoding settings              : cabac=1 / ref=9 / deblock=1:0:0 / analyse=0x3:0x133 / me=umh / subme=9 / psy=1 / psy_rd=1.00:0.00 / mixed_ref=1 / me_range=32 / chroma_me=1 / trellis=2 / 8x8dct=1 / cqm=0 / deadzone=21,11 / fast_pskip=0 / chroma_qp_offset=-2 / threads=12 / lookahead_threads=2 / sliced_threads=0 / nr=0 / decimate=0 / interlaced=0 / bluray_compat=0 / constrained_intra=0 / bframes=9 / b_pyramid=2 / b_adapt=2 / b_bias=0 / direct=3 / weightb=1 / open_gop=0 / weightp=2 / keyint=250 / keyint_min=23 / scenecut=40 / intra_refresh=0 / rc_lookahead=80 / rc=crf / mbtree=1 / crf=17.0 / qcomp=0.80 / qpmin=0 / qpmax=69 / qpstep=4 / vbv_maxrate=2560 / vbv_bufsize=5120 / crf_max=0.0 / nal_hrd=none / filler=0 / ip_ratio=1.40 / aq=3:0.70
    Encoded date                   : UTC 2015-10-22 17:21:23
    Tagged date                    : UTC 2015-10-21 18:11:21
    Color range                    : Limited
    Color primaries                : BT.709
    Transfer characteristics       : BT.709
    Matrix coefficients            : BT.709
    
    Audio
    ID                             : 2
    Format                         : AAC
    Format/Info                    : Advanced Audio Codec
    Format profile                 : LC
    Codec ID                       : 67
    Duration                       : 24mn 12s
    Bit rate mode                  : Variable
    Bit rate                       : 120 Kbps
    Maximum bit rate               : 127 Kbps
    Channel(s)                     : 2 channels
    Channel positions              : Front: L R
    Sampling rate                  : 48.0 KHz
    Compression mode               : Lossy
    Stream size                    : 20.8 MiB (7%)
    Encoded date                   : UTC 2015-10-21 18:11:21
    Tagged date                    : UTC 2015-10-21 18:11:21
    


    Folgen 03 / 76 online
    Folgen einzeln ladbar



    || Download & Passwort ||


    Geschützter Bereich - Bedanke dich beim Poster, um den Bereich sehen zu können
    Hier erfährst Du wie Du Dich bedanken kannst oder werde jetzt Premium Mitglied ab einer Spende von 5€ und erhalte sofortigen Zugriff auf den Downloadbereich!

    Geändert von galudo (12. October 2016 um 18:30 Uhr) Grund: Folgenupdate
    SUPPORT UND REUP ANFRAGEN NUR >> [Links sind nur für registrierte und aktivierte Nutzer sichtbar. Klicke hier um dich zu registrieren.] <<
    Bitte IMMER den Thread-Link mitschicken.

  2. 6 Benutzer sagen Danke:

    Asuka Langley (5. April 2016),Cande (5. April 2016),Kingqool (28. October 2015),midnighter (28. October 2015),old nick (25. October 2015),tokyodrift (26. October 2015)

  3. #2
    Kami-sama Avatar von galudo
    Registriert seit
    Mar 2015
    Beiträge
    1.371
    Punkte
    26.002
    Errungenschaften:
    TomodachisTagger ProfiHyperaktivSenpaiGang Leader

    AW: Marmalade Boy [Jap-Dub][Ger-Sub][480p][DVDRip] - ASS

    Episode 03 Online
    SUPPORT UND REUP ANFRAGEN NUR >> [Links sind nur für registrierte und aktivierte Nutzer sichtbar. Klicke hier um dich zu registrieren.] <<
    Bitte IMMER den Thread-Link mitschicken.

Stichworte

Lesezeichen

Berechtigungen

  • Neue Themen erstellen: Nein
  • Themen beantworten: Nein
  • Anhänge hochladen: Nein
  • Beiträge bearbeiten: Nein
  •  

1 2 3 4 5 6 7 8 9 10 11 12 13 14 15 16 17 18 19 20 21 22 23 24 25 26 27 28 29 30 31 32 33 34 35 36 37 38 39 40 41 42 43 44 45 46 47 48 49 50 51 52 53 54 55 56 57 58 59 60 61 62 63 64 65 66 67 68 69 70 71 72 73 74 75 76 77 78 79 80 81 82 83 84 85 86 87 88 89 90 91 92 93 94 95 96 97 98 99 100 101 102 103 104 105 106 107 108 109 110 111 112 113 114 115 116 117 118 119 120 121 122 123 124 125 126 127 128 129 130 131 132 133 134 135 136 137 138 139 140 141 142 143 144 145 146 147 148 149 150 151 152 153 154 155 156 157 158