Ergebnis 1 bis 5 von 5

Thema: Mayoiga [Laufend][Jap-Dub][Ger-Sub][720p-10Bit][WebRip] - MFs

Dieser Thread wurde noch nicht bewertet. Bewerte ihn doch, wenn er dir gefällt!
  1. #1
    Uploader Avatar von Filbo11
    Registriert seit
    Jan 2015
    Beiträge
    926
    Punkte
    17.174
    Errungenschaften:
    TomodachisErste Gruppe1 Jahr registriertCreated Album picturesTagger First Class

    Mayoiga [Laufend][Jap-Dub][Ger-Sub][720p-10Bit][WebRip] - MFs

    Mayoiga
    迷家
    The Lost Village




    Beschreibung

    30 junge Männer und Frauen kommen bei einer zwielichtigen Bustour zusammen und haben ein Ziel: Das schwer zu erreichende, möglicherweise auch nicht existierende Dorf Nanakimura. In einer Legende heißt es, dass man in Nanakimura eine utopische Existenz führen kann, ohne dass einem das Leben Steine in den Weg legt. Mit den 30 Insassen, die allesamt eine eigene Vorstellung von ihrem Leben haben, wird der Bus tief in die Berge geleitet. Dort erreichen sie auch ein unbewohntes Dorf, welches schon fast auseinander fällt.

    Format: MKV
    Dauer: ca. 24 min
    Größe: ca. 310 MB
    Sprache: Japanisch
    Untertitel: Deutsch
    Group: [Mirai-Fansubs]
    Hoster: Uploaded.net & Share-Online.biz
    kein PW


    Screenshots & MediaInfo

    Spoiler
    [Links sind nur für registrierte und aktivierte Nutzer sichtbar. Klicke hier um dich zu registrieren.]

    Code:
    General
    
    Complete name               : [MFs] Mayoiga EP01 [720p Hi10p AAC][5A439FCA].mkv
    Format                      : Matroska
    Format version              : Version 4 / Version 2
    File size                   : 310 MiB
    Duration                    : 24mn 30s
    Overall bit rate            : 1 769 Kbps
    Encoded date                : UTC 2016-05-18 12:07:13
    Writing application         : mkvmerge v7.9.0 ('Birds') 64bit
    Writing library             : libebml v1.3.1 + libmatroska v1.4.2
    Attachments                 : Sigvar-Serial-Bold.ttf / Sigvar-Serial-BoldItalic.ttf / Sigvar-Serial-Light-Regular.ttf / Sigvar-Serial-Light-RegularItalic.ttf / Sigvar-Serial-Regular.ttf / ufonts.com_advert.ttf / 9SALERNO_1.TTF / euphorig.ttf / IndieFlower.ttf / MilasianMediumPERSONAL.ttf
    
    Video
    ID                          : 1
    Format                      : AVC
    Format/Info                 : Advanced Video Codec
    Format profile              : High [email protected]
    Format settings, CABAC      : Yes
    Format settings, ReFrames   : 16 frames
    Codec ID                    : V_MPEG4/ISO/AVC
    Duration                    : 24mn 27s
    Bit rate                    : 1 576 Kbps
    Width                       : 1 280 pixels
    Height                      : 720 pixels
    Display aspect ratio        : 16:9
    Frame rate mode             : Constant
    Frame rate                  : 23.976 (24000/1001) fps
    Color space                 : YUV
    Chroma subsampling          : 4:2:0
    Bit depth                   : 10 bits
    Scan type                   : Progressive
    Bits/(Pixel*Frame)          : 0.071
    Stream size                 : 276 MiB (89%)
    Title                       : @CR (WEB)
    Writing library             : x264 core 148 r2692+54 69a6f49 t_mod_Custom [[email protected] X86_64]
    Encoding settings           : cabac=1 / ref=16 / deblock=1:-1:-1 / analyse=0x3:0x133 / me=umh / subme=10 / psy=1 / fade_compensate=0.77 / psy_rd=0.83:0.00 / mixed_ref=1 / me_range=32 / chroma_me=1 / trellis=2 / 8x8dct=1 / cqm=0 / deadzone=21,11 / fast_pskip=0 / chroma_qp_offset=-2 / threads=12 / lookahead_threads=3 / sliced_threads=0 / nr=0 / decimate=0 / interlaced=0 / bluray_compat=0 / constrained_intra=0 / fgo=0 / bframes=16 / b_pyramid=2 / b_adapt=2 / b_bias=0 / direct=3 / weightb=1 / open_gop=0 / weightp=2 / keyint=250 / keyint_min=23 / scenecut=40 / intra_refresh=0 / rc_lookahead=48 / rc=crf / mbtree=1 / crf=17.0000 / qcomp=0.70 / qpmin=0:0:0 / qpmax=81:81:81 / qpstep=4 / ip_ratio=1.40 / aq=3:1.22 / aq-sensitivity=10.00 / aq-factor=1.00:1.00:1.00 / aq2=0 / aq3=0
    Language                    : Japanese
    Default                     : Yes
    Forced                      : Yes
    Color range                 : Limited
    Matrix coefficients         : BT.709
    
    Audio
    ID                          : 2
    Format                      : AAC
    Format/Info                 : Advanced Audio Codec
    Format profile              : LC
    Codec ID                    : A_AAC
    Duration                    : 24mn 26s
    Bit rate                    : 192 Kbps
    Channel(s)                  : 2 channels
    Channel positions           : Front: L R
    Sampling rate               : 48.0 KHz
    Frame rate                  : 46.875 fps (1024 spf)
    Compression mode            : Lossy
    Stream size                 : 33.0 MiB (11%)
    Title                       : @WOWOW (TV)
    Language                    : Japanese
    Default                     : Yes
    Forced                      : Yes
    
    Text #1
    ID                          : 3
    Format                      : ASS
    Codec ID                    : S_TEXT/ASS
    Codec ID/Info               : Advanced Sub Station Alpha
    Duration                    : 24mn 29s
    Bit rate                    : 329 bps
    Count of elements           : 586
    Compression mode            : Lossless
    Stream size                 : 59.2 KiB (0%)
    Title                       : Mit Suffixe
    Language                    : German
    Default                     : Yes
    Forced                      : Yes
    
    Text #2
    ID                          : 4
    Format                      : ASS
    Codec ID                    : S_TEXT/ASS
    Codec ID/Info               : Advanced Sub Station Alpha
    Duration                    : 24mn 29s
    Bit rate                    : 305 bps
    Count of elements           : 536
    Compression mode            : Lossless
    Stream size                 : 54.8 KiB (0%)
    Title                       : Ohne Suffixe
    Language                    : gem
    Default                     : No
    Forced                      : No
    
    Menu
    00:00:00.033                : en:Intro
    00:05:39.020                : en:"Gensou Drive (幻想ドライブ)" by Ami Wajima (Opening)
    00:07:08.990                : en:Episode 1: Vorsicht ist die Mutter der Porzellankiste
    00:22:37.040                : en:"Ketsuro (結露)" by Rina Katahira (Ending)


    Alle Mirrors untereinander kompatibel
    Folgen einzeln ladbar
    Folge 5/12 online


    Download
    Geschützter Bereich - Bedanke dich beim Poster, um den Bereich sehen zu können
    Hier erfährst Du wie Du Dich bedanken kannst oder werde jetzt Premium Mitglied ab einer Spende von 5€ und erhalte sofortigen Zugriff auf den Downloadbereich!

    Geändert von Filbo11 (2. July 2016 um 18:48 Uhr) Grund: folge 5 hinzugefügt

    [Links sind nur für registrierte und aktivierte Nutzer sichtbar. Klicke hier um dich zu registrieren.]

    Ich wäre allen sehr dankbar, die mir gravierende Fehler in meinen Releases per PN melden

  2. 7 Benutzer sagen Danke:

    DarthToast (2. July 2016),fichtlwichtl (6. July 2016),Frag0042 (29. June 2016),Kyuubi90 (3. July 2016),re.tischi (20. June 2016),Sonicslash (18. June 2016),SONNYxq (2. July 2016)

  3. #2
    Uploader Avatar von Filbo11
    Registriert seit
    Jan 2015
    Beiträge
    926
    Punkte
    17.174
    Errungenschaften:
    TomodachisErste Gruppe1 Jahr registriertCreated Album picturesTagger First Class

    AW: Mayoiga [Laufend][Jap-Dub][Ger-Sub][720p-10Bit][WebRip] - MFs

    folge 2 hinzugefügt

    [Links sind nur für registrierte und aktivierte Nutzer sichtbar. Klicke hier um dich zu registrieren.]

    Ich wäre allen sehr dankbar, die mir gravierende Fehler in meinen Releases per PN melden

  4. #3
    Uploader Avatar von Filbo11
    Registriert seit
    Jan 2015
    Beiträge
    926
    Punkte
    17.174
    Errungenschaften:
    TomodachisErste Gruppe1 Jahr registriertCreated Album picturesTagger First Class

    AW: Mayoiga [Laufend][Jap-Dub][Ger-Sub][720p-10Bit][WebRip] - MFs

    folge 3 hinzugefügt

    [Links sind nur für registrierte und aktivierte Nutzer sichtbar. Klicke hier um dich zu registrieren.]

    Ich wäre allen sehr dankbar, die mir gravierende Fehler in meinen Releases per PN melden

  5. #4
    Uploader Avatar von Filbo11
    Registriert seit
    Jan 2015
    Beiträge
    926
    Punkte
    17.174
    Errungenschaften:
    TomodachisErste Gruppe1 Jahr registriertCreated Album picturesTagger First Class

    AW: Mayoiga [Laufend][Jap-Dub][Ger-Sub][720p-10Bit][WebRip] - MFs

    folge 4 hinzugefügt

    [Links sind nur für registrierte und aktivierte Nutzer sichtbar. Klicke hier um dich zu registrieren.]

    Ich wäre allen sehr dankbar, die mir gravierende Fehler in meinen Releases per PN melden

  6. #5
    Uploader Avatar von Filbo11
    Registriert seit
    Jan 2015
    Beiträge
    926
    Punkte
    17.174
    Errungenschaften:
    TomodachisErste Gruppe1 Jahr registriertCreated Album picturesTagger First Class

    AW: Mayoiga [Laufend][Jap-Dub][Ger-Sub][720p-10Bit][WebRip] - MFs

    folge 5 hinzugefügt

    [Links sind nur für registrierte und aktivierte Nutzer sichtbar. Klicke hier um dich zu registrieren.]

    Ich wäre allen sehr dankbar, die mir gravierende Fehler in meinen Releases per PN melden

Stichworte

Lesezeichen

Berechtigungen

  • Neue Themen erstellen: Nein
  • Themen beantworten: Nein
  • Anhänge hochladen: Nein
  • Beiträge bearbeiten: Nein
  •  

1 2 3 4 5 6 7 8 9 10 11 12 13 14 15 16 17 18 19 20 21 22 23 24 25 26 27 28 29 30 31 32 33 34 35 36 37 38 39 40 41 42 43 44 45 46 47 48 49 50 51 52 53 54 55 56 57 58 59 60 61 62 63 64 65 66 67 68 69 70 71 72 73 74 75 76 77 78 79 80 81 82 83 84 85 86 87 88 89 90 91 92 93 94 95 96 97 98 99 100 101 102 103 104 105 106 107 108 109 110 111 112 113 114 115 116 117 118 119 120 121 122 123 124 125 126 127 128 129 130 131 132 133 134 135 136 137 138 139 140 141 142 143 144 145 146 147 148 149 150 151 152 153 154 155 156 157 158