Ergebnis 1 bis 1 von 1

Thema: Megane na Kanojo [Jap-Dub][Ger-Sub][480p][DVDRip]-OS

Dieser Thread wurde noch nicht bewertet. Bewerte ihn doch, wenn er dir gefällt!
  1. #1
    United we Stand Avatar von 00Ryuji00
    Registriert seit
    Oct 2012
    Beiträge
    3.896
    Punkte
    99.519
    Errungenschaften:
    TomodachisGang LeaderHikikomoriTagger Amateur50000 Erfahrungspunkte

    Megane na Kanojo [Jap-Dub][Ger-Sub][480p][DVDRip]-OS


    Megane na Kanojo
    眼鏡なカノジョ






    Kurzbeschreibung:
    Zitat Zitat von AniSearch.com
    Der Anime erzählt mit seinen vier Episoden jeweils eine romantische Kurzgeschichte. Alle vier voneinander unabhängigen Geschichten werden nur dadurch, dass die weiblichen Protagonisten Brillenträger sind, miteinander verbunden.


    Spieldauer: 14min
    Genre: Romantische Komödie
    Nebengenres: Komödie, Männlich, Romanze
    Jahr: 2010
    Sprache: Japanisch
    Untertitel: Deutsch
    Größe pro Folge: ~110 MiB
    Episodenanzahl: 4/4
    Format: MP4
    Auflösung: 480p (3:2)
    Videocodec: x264 (AVC)
    Audiocodec: AAC
    Releasegruppe: Offline-Subs
    Hoster: Share-Online, Uploaded


    MediaInfo
    Code:
    
    Format                                   : MPEG-4
    Format profile                           : Base Media
    Codec ID                                 : isom
    File size                                : 110 MiB
    Duration                                 : 13mn 58s
    Overall bit rate mode                    : Variable
    Overall bit rate                         : 1 095 Kbps
    Encoded date                             : UTC 2010-12-03 17:38:35
    Tagged date                              : UTC 2010-12-03 17:38:35
    
    Video
    ID                                       : 1
    Format                                   : AVC
    Format/Info                              : Advanced Video Codec
    Format profile                           : [email protected]
    Format settings, CABAC                   : Yes
    Format settings, ReFrames                : 3 frames
    Codec ID                                 : avc1
    Codec ID/Info                            : Advanced Video Coding
    Duration                                 : 13mn 58s
    Bit rate                                 : 900 Kbps
    Maximum bit rate                         : 3 727 Kbps
    Width                                    : 720 pixels
    Height                                   : 480 pixels
    Display aspect ratio                     : 3:2
    Frame rate mode                          : Constant
    Frame rate                               : 23.976 fps
    Color space                              : YUV
    Chroma subsampling                       : 4:2:0
    Bit depth                                : 8 bits
    Scan type                                : Progressive
    Bits/(Pixel*Frame)                       : 0.109
    Stream size                              : 90.0 MiB (82%)
    Writing library                          : x264 core 80 r1376M 3feaec2
    Encoding settings                        : cabac=1 / ref=3 / deblock=1:2:2 / analyse=0x1:0x111 / me=hex / subme=7 / psy=1 / psy_rd=0.4:0.0 / mixed_ref=1 / me_range=16 / chroma_me=1 / trellis=1 / 8x8dct=0 / cqm=0 / deadzone=21,11 / fast_pskip=1 / chroma_qp_offset=-2 / threads=6 / sliced_threads=0 / nr=200 / decimate=1 / mbaff=0 / constrained_intra=0 / bframes=3 / b_pyramid=0 / b_adapt=1 / b_bias=0 / direct=1 / wpredb=1 / wpredp=2 / keyint=250 / keyint_min=25 / scenecut=40 / rc_lookahead=40 / rc=2pass / mbtree=1 / bitrate=900 / ratetol=1.0 / qcomp=0.60 / qpmin=10 / qpmax=51 / qpstep=4 / cplxblur=20.0 / qblur=0.5 / ip_ratio=1.40 / aq=1:0.60
    Encoded date                             : UTC 2010-12-03 16:47:28
    Tagged date                              : UTC 2010-12-03 17:38:42
    
    Audio
    ID                                       : 2
    Format                                   : AAC
    Format/Info                              : Advanced Audio Codec
    Format profile                           : LC
    Codec ID                                 : 40
    Duration                                 : 13mn 58s
    Bit rate mode                            : Variable
    Bit rate                                 : 192 Kbps
    Maximum bit rate                         : 200 Kbps
    Channel(s)                               : 2 channels
    Channel positions                        : Front: L R
    Sampling rate                            : 48.0 KHz
    Compression mode                         : Lossy
    Stream size                              : 19.2 MiB (18%)
    Title                                    : Imported with GPAC 0.4.6-DEV (build 1)
    Language                                 : Japanese
    Encoded date                             : UTC 2010-12-03 17:38:41
    Tagged date                              : UTC 2010-12-03 17:38:42
    
    




    Geschützter Bereich - Bedanke dich beim Poster, um den Bereich sehen zu können
    Hier erfährst Du wie Du Dich bedanken kannst oder werde jetzt Premium Mitglied ab einer Spende von 5€ und erhalte sofortigen Zugriff auf den Downloadbereich!

    [Links sind nur für registrierte und aktivierte Nutzer sichtbar. Klicke hier um dich zu registrieren.]
    !!!Alle Anliegen bezüglich Uploads werden nur mit direktem Threadlink zum Angebot bearbeitet!!!

    Re-Uploadanfragen nur per PN - Ihr könnt mir auch Listen schicken

    Re-Uploads erfolgen meist innerhalb 24h, kann aber auch bis zu 7 Tage dauern

    [Links sind nur für registrierte und aktivierte Nutzer sichtbar. Klicke hier um dich zu registrieren.] | [Links sind nur für registrierte und aktivierte Nutzer sichtbar. Klicke hier um dich zu registrieren.] | >[Links sind nur für registrierte und aktivierte Nutzer sichtbar. Klicke hier um dich zu registrieren.]<
    [Links sind nur für registrierte und aktivierte Nutzer sichtbar. Klicke hier um dich zu registrieren.]

  2. 7 Benutzer sagen Danke:

    Akio (3. March 2016),Aluaran (8. January 2016),bloodyfloh (7. January 2016),eraz (10. January 2016),midnighter (20. January 2016),prinzvegeta (6. February 2016),Tzi (8. January 2016)

Lesezeichen

Berechtigungen

  • Neue Themen erstellen: Nein
  • Themen beantworten: Nein
  • Anhänge hochladen: Nein
  • Beiträge bearbeiten: Nein
  •  

1 2 3 4 5 6 7 8 9 10 11 12 13 14 15 16 17 18 19 20 21 22 23 24 25 26 27 28 29 30 31 32 33 34 35 36 37 38 39 40 41 42 43 44 45 46 47 48 49 50 51 52 53 54 55 56 57 58 59 60 61 62 63 64 65 66 67 68 69 70 71 72 73 74 75 76 77 78 79 80 81 82 83 84 85 86 87 88 89 90 91 92 93 94 95 96 97 98 99 100 101 102 103 104 105 106 107 108 109 110 111 112 113 114 115 116 117 118 119 120 121 122 123 124 125 126 127 128 129 130 131 132 133 134 135 136 137 138 139 140 141 142 143 144 145 146 147 148 149 150 151 152 153 154 155 156 157 158