Ergebnis 1 bis 2 von 2

Thema: Mobile Suit Gundam Unicorn [Eingestellt][Jap-Dub][Ger-Sub][720p][DVDRip]

Dieser Thread wurde noch nicht bewertet. Bewerte ihn doch, wenn er dir gefällt!
  1. #1
    Gesperrt
    Registriert seit
    Oct 2013
    Ort
    Milchstraße
    Beiträge
    565
    Punkte
    10.833
    Errungenschaften:
    TomodachisGang LeaderTagger Profi10000 ErfahrungspunkteHikikomori

    Mobile Suit Gundam Unicorn [Eingestellt][Jap-Dub][Ger-Sub][720p][DVDRip]

    Mobile Suit Gundam Unicorn
    Kidou Senshi Gundam Unicorn
    Kidou Senshi Gundam UC
    機動戦士ガンダムUC (ユニコーン)



    [Links sind nur für registrierte und aktivierte Nutzer sichtbar. Klicke hier um dich zu registrieren.]



    Es ist das Jahr U.C. 0096. Drei Jahre sind seit dem Ende des Zweiten Neo Zeon Krieg überging. Es ist gesagt, dass die Stiftung die Vist Earth Federation und Anaheim Electronics manipuliert hinter den Kulissen. In der Hoffnung, eine neue Welt zu schaffen, versucht die Stiftung zu übergeben, ein gewisses Geheimnis um den Neo Zeon Reste wie die Ärmel bekannt. Dies bedeutet die Eröffnung des Laplace-Box, die ein großes Geheimnis gebunden zu den Ursprüngen des Universal Century hält. Der Austausch zwischen den Vist-Stiftung und an den Ärmeln ist es, Platz bei der Herstellung von Industrie-Kolonie 7 zu treffen. Dies ist die Heimat des Studenten Banagher Links, die ein Mädchen, das er sieht, fallen durch die Kolonie der Schwerelosigkeit Bereich rettet. Das Mädchen gibt ihren Namen als Audrey Burne und sagt, sie will einen Krieg zu verhindern, die Stimulierung des Banagher in den Konflikt um Laplace-Box-fast, als ob er in von seinem eigenen Blutlinie gezogen fort.


    Genre: Action Drama Mecha Military SciFi
    Episoden: 6/7
    Format: .mkv
    Resolution: Ep. 1 480p (16:9); ab Ep. 2 720p (16:9)
    Sprache: Japanisch
    Untertitel: Deutsch
    Größe pro Folge: 0,8GB
    Releaser: Zaft [Aufgelöst]
    Hoster: Share-Online.biz; Uploaded.net


    Spoiler
    Format : MPEG-4
    Länge : 800 MiB for 24min 0s 105ms
    Gesamte Bitrate : 1 893 Kbps

    Video #0
    Format : AVC
    Auslösung : 1280 x 720; 23.976 fps
    BitDepth/String : 8 bits


    Audio #0 :
    Format : AAC
    Infos : 6 Kanäle, 48,0 KHz
    Language : Japanisch



    Geschützter Bereich - Bedanke dich beim Poster, um den Bereich sehen zu können
    Hier erfährst Du wie Du Dich bedanken kannst oder werde jetzt Premium Mitglied ab einer Spende von 5€ und erhalte sofortigen Zugriff auf den Downloadbereich!
    Geändert von Infi (2. June 2016 um 23:00 Uhr)

  2. 46 Benutzer sagen Danke:

    00Ryuji00 (5. May 2016),Asuka Langley (29. September 2015),B3nnoX (13. December 2015),Black_ Reaper (7. March 2016),Bloodyair (26. August 2015),Bloodywaffe (22. November 2015),DarkChaos (25. March 2015),Drachengott (12. January 2016),dreambird1973 (13. April 2016),FengShui (23. January 2016),GammaWar (12. January 2016),Hellhound32 (28. December 2015),herrwefer (3. October 2015),hUmiLitY (16. November 2015),Jamaz (19. August 2015),Junkmaster (2. April 2015),kadaj93 (13. September 2015),Kaelunor (28. July 2016),Kradus (11. July 2015),kyoto (9. December 2015),Lysinchen (19. February 2016),Max13493 (25. March 2015),Megamani (3. April 2016),midnighter (25. March 2015),Niebher (6. April 2015),onepiecefreak (28. April 2015),prinzvegeta (24. October 2015),Psycho-Shizuka (9. July 2015),re.tischi (26. April 2016),Rekke (9. February 2016),Riyadoris (10. August 2015),Rolledachpappe (7. September 2015),Sinmson (25. March 2015),SnowCat (14. April 2015),Spotix (28. October 2015),StrikeAngel13 (10. April 2015),Subroutine (20. April 2015),syncity (17. June 2015),TBlade (3. October 2015),Terraner (16. March 2016),TheAndi100 (30. March 2015),tokyodrift (18. October 2015),Wides (12. November 2015),Y1337 (1. November 2015),YamiXGhost (26. March 2015),yuudai (6. April 2015)

  3. #2
    United we Stand Avatar von 00Ryuji00
    Registriert seit
    Oct 2012
    Beiträge
    3.896
    Punkte
    99.519
    Errungenschaften:
    TomodachisGang LeaderHikikomoriTagger Amateur50000 Erfahrungspunkte

    AW: Mobile Suit Gundam Unicorn [Eingestellt][Jap-Dub][Ger-Sub][720p][DVDRip]


    Kidou Senshi Gundam Unicorn
    機動戦士ガンダムUC (ユニコーン)
    Mobile Suit Gundam Unicorn






    Kurzbeschreibung:
    Zitat Zitat von AniSearch.com
    Die Geschichte dreht sich um Banagher Links, seines Zeichens Schüler auf einer Weltraumkolonie.
    Sein Leben*nimmt seinen gewohnten Gang bis zu dem Tag, an dem er*Audrey Burne trifft. Durch verschiedene Verwicklungen kommt Banagher Links in Berührung mit der*neuen Gundam-Baureihe und schon nehmen die Ereignisse an Fahrt auf und sein Schicksal seinen Lauf.

    Angesiedelt ist die Geschichte*U.C. 0096, neunundsechzig*Jahre nach dem dem Beginn der menschlichen Weltraumkolonisation und der Zerstörung der Kolonie Laplace im Century System.
    Der Einjahreskrieg liegt*mittlerweile 16 Jahre und die Vorkommnisse um*Mobile Suit Gundam: Char's Counter Attack drei Jahre*in der Vergangenheit.


    Spieldauer: 60min
    Genre: Actiondrama
    Nebengenres: Abenteuer, Action, Drama, Mecha, Scifi
    Jahr: 2010
    Sprache: Japanisch
    Untertitel: Deutsch
    Größe pro Folge: ~600 MiB
    Episodenanzahl: 6/7
    Format: MP4
    Auflösung: Ep. 1 480p (16:9); ab Ep. 2 720p (16:9)
    Videocodec: x264 (AVC)
    Audiocodec: AAC
    Releasegruppe: Zaft
    Hoster: Share-Online, Uploaded


    MediaInfo

    Ep. 1
    Code:
    
    Format                                   : MPEG-4
    Format profile                           : Base Media
    Codec ID                                 : isom
    File size                                : 600 MiB
    Duration                                 : 57mn 52s
    Overall bit rate mode                    : Variable
    Overall bit rate                         : 1 450 Kbps
    Encoded date                             : UTC 2013-08-28 18:48:32
    Tagged date                              : UTC 2013-08-28 18:48:32
    
    Video
    ID                                       : 1
    Format                                   : AVC
    Format/Info                              : Advanced Video Codec
    Format profile                           : [email protected]
    Format settings, CABAC                   : Yes
    Format settings, ReFrames                : 10 frames
    Codec ID                                 : avc1
    Codec ID/Info                            : Advanced Video Coding
    Duration                                 : 57mn 52s
    Bit rate                                 : 1 276 Kbps
    Maximum bit rate                         : 9 480 Kbps
    Width                                    : 848 pixels
    Height                                   : 480 pixels
    Display aspect ratio                     : 16:9
    Frame rate mode                          : Constant
    Frame rate                               : 23.976 fps
    Color space                              : YUV
    Chroma subsampling                       : 4:2:0
    Bit depth                                : 8 bits
    Scan type                                : Progressive
    Bits/(Pixel*Frame)                       : 0.131
    Stream size                              : 528 MiB (88%)
    Title                                    : 264#trackID=1:[email protected]
    Writing library                          : x264 core 133 r2334 a3ac64b
    Encoding settings                        : cabac=1 / ref=10 / deblock=1:1:1 / analyse=0x3:0x113 / me=umh / subme=8 / psy=1 / psy_rd=0.40:0.00 / mixed_ref=1 / me_range=16 / chroma_me=1 / trellis=1 / 8x8dct=1 / cqm=0 / deadzone=21,11 / fast_pskip=1 / chroma_qp_offset=-2 / threads=6 / lookahead_threads=1 / sliced_threads=0 / nr=0 / decimate=1 / interlaced=0 / bluray_compat=0 / constrained_intra=0 / bframes=5 / b_pyramid=2 / b_adapt=2 / b_bias=0 / direct=3 / weightb=1 / open_gop=0 / weightp=2 / keyint=240 / keyint_min=23 / scenecut=40 / intra_refresh=0 / rc_lookahead=50 / rc=2pass / mbtree=1 / bitrate=1276 / ratetol=1.0 / qcomp=0.60 / qpmin=0 / qpmax=69 / qpstep=4 / cplxblur=20.0 / qblur=0.5 / ip_ratio=1.40 / aq=1:0.60
    Encoded date                             : UTC 2013-08-28 18:48:32
    Tagged date                              : UTC 2013-08-28 18:48:37
    
    Audio
    ID                                       : 2
    Format                                   : AAC
    Format/Info                              : Advanced Audio Codec
    Format profile                           : LC
    Codec ID                                 : 40
    Duration                                 : 57mn 52s
    Bit rate mode                            : Variable
    Bit rate                                 : 170 Kbps
    Maximum bit rate                         : 204 Kbps
    Channel(s)                               : 2 channels
    Channel positions                        : Front: L R
    Sampling rate                            : 48.0 KHz
    Compression mode                         : Lossy
    Stream size                              : 70.4 MiB (12%)
    Encoded date                             : UTC 2013-08-28 17:51:49
    Tagged date                              : UTC 2013-08-28 18:48:37
    
    


    Ab Ep. 2
    Code:
    
    
    Format                                   : MPEG-4
    Format profile                           : Base Media
    Codec ID                                 : isom
    File size                                : 800 MiB
    Duration                                 : 59mn 5s
    Overall bit rate mode                    : Variable
    Overall bit rate                         : 1 893 Kbps
    Encoded date                             : UTC 2013-08-28 17:51:31
    Tagged date                              : UTC 2013-08-28 17:51:31
    
    Video
    ID                                       : 1
    Format                                   : AVC
    Format/Info                              : Advanced Video Codec
    Format profile                           : [email protected]
    Format settings, CABAC                   : Yes
    Format settings, ReFrames                : 10 frames
    Codec ID                                 : avc1
    Codec ID/Info                            : Advanced Video Coding
    Duration                                 : 59mn 5s
    Bit rate                                 : 1 452 Kbps
    Maximum bit rate                         : 14.3 Mbps
    Width                                    : 1 280 pixels
    Height                                   : 720 pixels
    Display aspect ratio                     : 16:9
    Frame rate mode                          : Constant
    Frame rate                               : 23.976 fps
    Color space                              : YUV
    Chroma subsampling                       : 4:2:0
    Bit depth                                : 8 bits
    Scan type                                : Progressive
    Bits/(Pixel*Frame)                       : 0.066
    Stream size                              : 614 MiB (77%)
    Title                                    : 264#trackID=1:[email protected]
    Writing library                          : x264 core 133 r2334 a3ac64b
    Encoding settings                        : cabac=1 / ref=10 / deblock=1:1:1 / analyse=0x3:0x113 / me=umh / subme=8 / psy=1 / psy_rd=0.40:0.00 / mixed_ref=1 / me_range=16 / chroma_me=1 / trellis=1 / 8x8dct=1 / cqm=0 / deadzone=21,11 / fast_pskip=1 / chroma_qp_offset=-2 / threads=6 / lookahead_threads=1 / sliced_threads=0 / nr=0 / decimate=1 / interlaced=0 / bluray_compat=0 / constrained_intra=0 / bframes=5 / b_pyramid=2 / b_adapt=2 / b_bias=0 / direct=3 / weightb=1 / open_gop=0 / weightp=2 / keyint=240 / keyint_min=23 / scenecut=40 / intra_refresh=0 / rc_lookahead=50 / rc=2pass / mbtree=1 / bitrate=1452 / ratetol=1.0 / qcomp=0.60 / qpmin=0 / qpmax=69 / qpstep=4 / cplxblur=20.0 / qblur=0.5 / ip_ratio=1.40 / aq=1:0.60
    Encoded date                             : UTC 2013-08-28 17:51:31
    Tagged date                              : UTC 2013-08-28 17:51:37
    
    Audio
    ID                                       : 2
    Format                                   : AAC
    Format/Info                              : Advanced Audio Codec
    Format profile                           : LC
    Codec ID                                 : 40
    Duration                                 : 59mn 5s
    Bit rate mode                            : Variable
    Bit rate                                 : 437 Kbps
    Maximum bit rate                         : 532 Kbps
    Channel count                            : 6 channels
    Channel positions                        : Front: L C R, Side: L R, LFE
    Sampling rate                            : 48.0 KHz
    Compression mode                         : Lossy
    Stream size                              : 185 MiB (23%)
    Encoded date                             : UTC 2013-08-28 16:19:32
    Tagged date                              : UTC 2013-08-28 17:51:37
    
    





    Geschützter Bereich - Bedanke dich beim Poster, um den Bereich sehen zu können
    Hier erfährst Du wie Du Dich bedanken kannst oder werde jetzt Premium Mitglied ab einer Spende von 5€ und erhalte sofortigen Zugriff auf den Downloadbereich!


    [Links sind nur für registrierte und aktivierte Nutzer sichtbar. Klicke hier um dich zu registrieren.]
    !!!Alle Anliegen bezüglich Uploads werden nur mit direktem Threadlink zum Angebot bearbeitet!!!

    Re-Uploadanfragen nur per PN - Ihr könnt mir auch Listen schicken

    Re-Uploads erfolgen meist innerhalb 24h, kann aber auch bis zu 7 Tage dauern

    [Links sind nur für registrierte und aktivierte Nutzer sichtbar. Klicke hier um dich zu registrieren.] | [Links sind nur für registrierte und aktivierte Nutzer sichtbar. Klicke hier um dich zu registrieren.] | >[Links sind nur für registrierte und aktivierte Nutzer sichtbar. Klicke hier um dich zu registrieren.]<
    [Links sind nur für registrierte und aktivierte Nutzer sichtbar. Klicke hier um dich zu registrieren.]

Lesezeichen

Berechtigungen

  • Neue Themen erstellen: Nein
  • Themen beantworten: Nein
  • Anhänge hochladen: Nein
  • Beiträge bearbeiten: Nein
  •  

1 2 3 4 5 6 7 8 9 10 11 12 13 14 15 16 17 18 19 20 21 22 23 24 25 26 27 28 29 30 31 32 33 34 35 36 37 38 39 40 41 42 43 44 45 46 47 48 49 50 51 52 53 54 55 56 57 58 59 60 61 62 63 64 65 66 67 68 69 70 71 72 73 74 75 76 77 78 79 80 81 82 83 84 85 86 87 88 89 90 91 92 93 94 95 96 97 98 99 100 101 102 103 104 105 106 107 108 109 110 111 112 113 114 115 116 117 118 119 120 121 122 123 124 125 126 127 128 129 130 131 132 133 134 135 136 137 138 139 140 141 142 143 144 145 146 147 148 149 150 151 152 153 154 155 156 157 158