Ergebnis 1 bis 1 von 1

Thema: Nagasarete Airanto [Jap-Dub][Ger-Sub][720p][HDTV]

Dieser Thread wurde noch nicht bewertet. Bewerte ihn doch, wenn er dir gefällt!
  1. #1
    United we Stand Avatar von 00Ryuji00
    Registriert seit
    Oct 2012
    Beiträge
    3.903
    Punkte
    100.261
    Errungenschaften:
    TomodachisGang LeaderHikikomoriTagger Amateur50000 Erfahrungspunkte

    Nagasarete Airanto [Jap-Dub][Ger-Sub][720p][HDTV]

    Nagasarete Airanto
    ながされて藍蘭島
    Drift off to Blue Orchid Island
    Nagasarete Airantou
    Casted Away - Airan Island






    Kurzbeschreibung:
    Ikuto Touhouin ist 14 Jahre alt und treibt zur Zeit nur mit Hilfe eines Rettungsrings auf dem Ozean. Obendrein stürmt es heftig und es scheint keine Rettung in Sicht. Das alles nur, weil er sich mit seinem Vater gestritten hat. Jedoch scheint ihm das Glück hold zu sein - er wird an Land einer recht merkwürdigen Insel gespült. Diese Insel hat zu seinem Erstauen Einwohner und zwar ausschließlich Frauen.

    Nachdem er aus dem Wasser gefischt und verarztet wird, hat er sich schon der nächsten Herausforderung zu stellen. Er, der einzige Mann auf der Insel, ist das Ziel so mancher heiratswilligen Frau geworden.

    Da er sich nicht mit dem Gedanken abfinden will mit 14 schon fest gebunden zu sein, versucht er mit diversen Manövern von dieser Insel zu entkommen - was, dank der für ihn unüberwindbaren Strudel, unmöglich scheint. Vorerst sitzt er also fest auf dieser Insel, die ungewöhnlichste Flora und Fauna beheimatet und so manches Abenteuer für ihn bereithält.


    Sprache: Japanisch
    Untertitel: Deutsch
    Episodenanzahl: 26/26
    Format: .mkv
    Auflösung: 720p (16:9)
    Codec: x264
    Gruppe: Akatsuki-Subs
    Hoster: Share-Online ; Uploaded


    Datei Info:
    Spoiler

    Code:
    
    
    Format                                   : Matroska
    Format version                           : Version 1
    File size                                : 200 MiB
    Duration                                 : 23mn 59s
    Overall bit rate                         : 1 165 Kbps
    Encoded date                             : UTC 2008-07-18 22:50:23
    Writing application                      : mkvmerge v2.2.0 ('Turn It On Again') built on Mar  4 2008 12:58:26
    Writing library                          : libebml v0.7.7 + libmatroska v0.8.1
    
    Video
    ID                                       : 1
    Format                                   : AVC
    Format/Info                              : Advanced Video Codec
    Format profile                           : [email protected]
    Format settings, CABAC                   : Yes
    Format settings, ReFrames                : 16 frames
    Codec ID                                 : V_MPEG4/ISO/AVC
    Duration                                 : 23mn 59s
    Bit rate                                 : 969 Kbps
    Width                                    : 1 280 pixels
    Height                                   : 720 pixels
    Display aspect ratio                     : 16:9
    Frame rate mode                          : Constant
    Frame rate                               : 23.976 fps
    Color space                              : YUV
    Chroma subsampling                       : 4:2:0
    Bit depth                                : 8 bits
    Scan type                                : Progressive
    Bits/(Pixel*Frame)                       : 0.044
    Stream size                              : 163 MiB (82%)
    Title                                    : Akatsuki-Subs
    Writing library                          : x264 core 60 r901M 58d7d06
    Encoding settings                        : cabac=1 / ref=16 / deblock=1:1:1 / analyse=0x3:0x113 / me=umh / subme=7 / rdcmp=psy / brdo=1 / mixed_ref=1 / me_range=16 / chroma_me=1 / trellis=2 / 8x8dct=1 / cqm=0 / deadzone=21,11 / chroma_qp_offset=0 / threads=6 / nr=0 / decimate=1 / mbaff=0 / bframes=16 / b_pyramid=1 / b_adapt=1 / b_bias=0 / direct=3 / wpredb=1 / bime=1 / keyint=250 / keyint_min=25 / scenecut=40(pre) / rc=2pass / bitrate=969 / ratetol=1.0 / rceq='blurCplx^(1-qComp)' / qcomp=1.00 / qpmin=10 / qpmax=51 / qpstep=4 / cplxblur=20.0 / qblur=0.5 / ip_ratio=1.40 / pb_ratio=1.30 / aq=2:1.00
    Language                                 : Japanese
    Default                                  : Yes
    Forced                                   : No
    
    Audio
    ID                                       : 2
    Format                                   : MPEG Audio
    Format version                           : Version 1
    Format profile                           : Layer 3
    Mode                                     : Joint stereo
    Codec ID                                 : A_MPEG/L3
    Codec ID/Hint                            : MP3
    Duration                                 : 23mn 59s
    Bit rate mode                            : Constant
    Bit rate                                 : 192 Kbps
    Channel count                            : 2 channels
    Sampling rate                            : 48.0 KHz
    Compression mode                         : Lossy
    Stream size                              : 33.0 MiB (16%)
    Title                                    : Akatsuki-Subs
    Language                                 : Japanese
    Default                                  : Yes
    Forced                                   : No
    
    





    Geschützter Bereich - Bedanke dich beim Poster, um den Bereich sehen zu können
    Hier erfährst Du wie Du Dich bedanken kannst oder werde jetzt Premium Mitglied ab einer Spende von 5€ und erhalte sofortigen Zugriff auf den Downloadbereich!

    !!!Alle Anliegen bezüglich Uploads werden nur mit direktem Threadlink zum Angebot bearbeitet!!!

    Re-Uploadanfragen nur per PN - Ihr könnt mir auch Listen schicken

    Re-Uploads folgen nach Anfrage meist am Wochenende

    [Links sind nur für registrierte und aktivierte Nutzer sichtbar. Klicke hier um dich zu registrieren.] | [Links sind nur für registrierte und aktivierte Nutzer sichtbar. Klicke hier um dich zu registrieren.] | >[Links sind nur für registrierte und aktivierte Nutzer sichtbar. Klicke hier um dich zu registrieren.]<
    [Links sind nur für registrierte und aktivierte Nutzer sichtbar. Klicke hier um dich zu registrieren.]

  2. 22 Benutzer sagen Danke:

    Akio (28. January 2016),Antipott (21. October 2015),bananaphone (26. October 2015),BlackDragon333 (9. September 2015),Cande (4. October 2015),Ch1quita (15. September 2015),danielbern (14. October 2015),DarkTerminator (11. April 2016),Etzlo (28. March 2016),Griever (19. October 2016),Herion (23. August 2015),krasserGaul (8. August 2015),Lombrero (7. November 2015),McZeRo (20. September 2015),Megamani (8. August 2015),midnighter (12. August 2015),prinzvegeta (9. August 2015),Smasher25 (17. October 2015),speik128 (17. January 2016),walda191 (21. February 2016),Wölfchen (8. August 2015),xhellsingx (26. January 2016)

Lesezeichen

Berechtigungen

  • Neue Themen erstellen: Nein
  • Themen beantworten: Nein
  • Anhänge hochladen: Nein
  • Beiträge bearbeiten: Nein
  •  

1 2 3 4 5 6 7 8 9 10 11 12 13 14 15 16 17 18 19 20 21 22 23 24 25 26 27 28 29 30 31 32 33 34 35 36 37 38 39 40 41 42 43 44 45 46 47 48 49 50 51 52 53 54 55 56 57 58 59 60 61 62 63 64 65 66 67 68 69 70 71 72 73 74 75 76 77 78 79 80 81 82 83 84 85 86 87 88 89 90 91 92 93 94 95 96 97 98 99 100 101 102 103 104 105 106 107 108 109 110 111 112 113 114 115 116 117 118 119 120 121 122 123 124 125 126 127 128 129 130 131 132 133 134 135 136 137 138 139 140 141 142 143 144 145 146 147 148 149 150 151 152 153 154 155 156 157 158