Ergebnis 1 bis 4 von 4

Thema: Nanatsu no Taizai: Seisen no Shirushi [Jap-Dub][Ger-Sub][720p][HDTV] - NKDE

Dieser Thread wurde noch nicht bewertet. Bewerte ihn doch, wenn er dir gefällt!
  1. #1
    Kami-sama Avatar von galudo
    Registriert seit
    Mar 2015
    Beiträge
    1.369
    Punkte
    25.903
    Errungenschaften:
    TomodachisTagger ProfiHyperaktivSenpaiGang Leader

    Nanatsu no Taizai: Seisen no Shirushi [Jap-Dub][Ger-Sub][720p][HDTV] - NKDE

    Nanatsu no Taizai: Seisen no Shirushi
    七つの大罪 The Seven Deadly Sins 聖戦の予兆[しるし]
    The Seven Deadly Sins: Signs of Holy War
    Nanatsu no Taizai: Seisen no Yochou



    Kurzbeschreibung
    Baisert auf der Manga Serie die von Suzuki Nakaba geschrieben und illustriert wurde.
    Setzt im Grunde ans Ende von der ersten Staffel an, daher sehenswert ^^
    Format: MP4
    Sprache: Japanisch
    Untertitel: Deutsch (HardSub)
    Genre: Action, Adventure, Ecchi, Comedy, Fantasy
    Größe: ~ 250 MB pro Folge | Gesamtgröße: 1,08 GB
    Dauer: ~ 24 Minuten
    Jahr: 2016
    Video: 720p
    Source: HDTV
    Subgroup / Releasegroup: NKDE-Subs

    Hoster: Share-Online | Uploaded
    Passwort: siehe unten
    Onlinestatus:


    Datei-Info
    Spoiler
    Code:
    General
    Complete name                  : [NKDE-Subs] Nanatsu no Taizai - Seisen no Shirushi - 01 Ger Sub.mp4
    Format                         : MPEG-4
    Format profile                 : Base Media / Version 2
    Codec ID                       : mp42
    File size                      : 253 MiB
    Duration                       : 24mn 14s
    Overall bit rate mode          : Variable
    Overall bit rate               : 1 456 Kbps
    Encoded date                   : UTC 2016-09-06 13:15:03
    Tagged date                    : UTC 2016-09-06 13:15:03
    Writing application            : HandBrake 0.10.5 2016021100
    
    Video
    ID                             : 1
    Format                         : AVC
    Format/Info                    : Advanced Video Codec
    Format profile                 : [email protected]
    Format settings, CABAC         : Yes
    Format settings, ReFrames      : 4 frames
    Codec ID                       : avc1
    Codec ID/Info                  : Advanced Video Coding
    Duration                       : 24mn 14s
    Bit rate                       : 1 280 Kbps
    Width                          : 1 280 pixels
    Height                         : 720 pixels
    Display aspect ratio           : 16:9
    Frame rate mode                : Variable
    Frame rate                     : 23.976 fps
    Minimum frame rate             : 23.810 fps
    Maximum frame rate             : 24.390 fps
    Color space                    : YUV
    Chroma subsampling             : 4:2:0
    Bit depth                      : 8 bits
    Scan type                      : Progressive
    Bits/(Pixel*Frame)             : 0.058
    Stream size                    : 224 MiB (89%)
    Writing library                : x264 core 142 r2491 24e4fed
    Encoding settings              : cabac=1 / ref=3 / deblock=1:0:0 / analyse=0x3:0x113 / me=hex / subme=7 / psy=1 / psy_rd=1.00:0.00 / mixed_ref=1 / me_range=16 / chroma_me=1 / trellis=1 / 8x8dct=1 / cqm=0 / deadzone=21,11 / fast_pskip=1 / chroma_qp_offset=-2 / threads=12 / lookahead_threads=2 / sliced_threads=0 / nr=0 / decimate=1 / interlaced=0 / bluray_compat=0 / constrained_intra=0 / bframes=3 / b_pyramid=2 / b_adapt=1 / b_bias=0 / direct=1 / weightb=1 / open_gop=0 / weightp=2 / keyint=240 / keyint_min=24 / scenecut=40 / intra_refresh=0 / rc_lookahead=40 / rc=abr / mbtree=1 / bitrate=1280 / ratetol=1.0 / qcomp=0.60 / qpmin=0 / qpmax=69 / qpstep=4 / vbv_maxrate=17500 / vbv_bufsize=17500 / nal_hrd=none / filler=0 / ip_ratio=1.40 / aq=1:1.00
    Encoded date                   : UTC 2016-09-06 13:15:03
    Tagged date                    : UTC 2016-09-06 13:15:03
    Color range                    : Limited
    Color primaries                : BT.709
    Transfer characteristics       : BT.709
    Matrix coefficients            : BT.709
    
    Audio
    ID                             : 2
    Format                         : AAC
    Format/Info                    : Advanced Audio Codec
    Format profile                 : LC
    Codec ID                       : 40
    Duration                       : 24mn 14s
    Bit rate mode                  : Variable
    Bit rate                       : 160 Kbps
    Channel(s)                     : 2 channels
    Channel positions              : Front: L R
    Sampling rate                  : 48.0 KHz
    Compression mode               : Lossy
    Stream size                    : 27.7 MiB (11%)
    Title                          : Stereo / Stereo
    Language                       : Japanese
    Encoded date                   : UTC 2016-09-06 13:15:03
    Tagged date                    : UTC 2016-09-06 13:15:03


    Folgen 04 / 04 online
    Folgen einzeln ladbar



    || Download & Passwort ||


    Geschützter Bereich - Bedanke dich beim Poster, um den Bereich sehen zu können
    Hier erfährst Du wie Du Dich bedanken kannst oder werde jetzt Premium Mitglied ab einer Spende von 5€ und erhalte sofortigen Zugriff auf den Downloadbereich!

    BluRay-Release von Nanatsu no Taizai S01:
    [Links sind nur für registrierte und aktivierte Nutzer sichtbar. Klicke hier um dich zu registrieren.]
    Geändert von galudo (12. October 2016 um 18:10 Uhr) Grund: Folgenupdate
    SUPPORT UND REUP ANFRAGEN NUR >> [Links sind nur für registrierte und aktivierte Nutzer sichtbar. Klicke hier um dich zu registrieren.] <<
    Bitte IMMER den Thread-Link mitschicken.

  2. 39 Benutzer sagen Danke:

    Aluaran (12. September 2016),C3M-O- (1. November 2016),Chaosdragon (30. October 2016),CherryLarry (11. November 2016),CROYAL (18. October 2016),Cyberbrain85 (16. October 2016),drparnassus (18. September 2016),FantasticZ (19. November 2016),Geisterhaendler (27. November 2016),Genshirou (16. October 2016),GiftGasBaer (23. October 2016),goldratte (14. October 2016),KainIV (29. October 2016),kaiste (19. October 2016),KiritoDerSchwertKämpfer (19. November 2016),Kyuubi90 (27. September 2016),LawrenceKraft (31. October 2016),lfsxtreme (14. October 2016),Llyrell (17. November 2016),LoganKell (11. November 2016),Magicmanx (21. September 2016),michael187 (11. September 2016),Nanatzusaya (22. October 2016),OtakuTim (11. September 2016),Raidøn (17. October 2016),Skeletti (14. October 2016),Skully_88 (17. October 2016),Sora (25. September 2016),Suigetsu (10. October 2016),thereverend (26. September 2016),Tysar (17. November 2016),Vastolord (24. October 2016),Virgel (4. October 2016),Wakaba (28. September 2016),wire1257 (12. October 2016),xhellsingx (16. October 2016),Zap (30. September 2016),Zeigerful (11. October 2016),zockerfreund (26. September 2016)

  3. #2
    Kami-sama Avatar von galudo
    Registriert seit
    Mar 2015
    Beiträge
    1.369
    Punkte
    25.903
    Errungenschaften:
    TomodachisTagger ProfiHyperaktivSenpaiGang Leader

    AW: Nanatsu no Taizai: Seisen no Shirushi [Laufend][Jap-Dub][Ger-Sub][720p][HDTV] - NKDE

    Episode 02 Online
    SUPPORT UND REUP ANFRAGEN NUR >> [Links sind nur für registrierte und aktivierte Nutzer sichtbar. Klicke hier um dich zu registrieren.] <<
    Bitte IMMER den Thread-Link mitschicken.

  4. 2 Benutzer sagen Danke:

    Sora (25. September 2016),Virgel (4. October 2016)

  5. #3
    Kami-sama Avatar von galudo
    Registriert seit
    Mar 2015
    Beiträge
    1.369
    Punkte
    25.903
    Errungenschaften:
    TomodachisTagger ProfiHyperaktivSenpaiGang Leader

    AW: Nanatsu no Taizai: Seisen no Shirushi [Laufend][Jap-Dub][Ger-Sub][720p][HDTV] - NKDE

    Episode 03 Online
    SUPPORT UND REUP ANFRAGEN NUR >> [Links sind nur für registrierte und aktivierte Nutzer sichtbar. Klicke hier um dich zu registrieren.] <<
    Bitte IMMER den Thread-Link mitschicken.

  6. 2 Benutzer sagen Danke:

    Sora (25. September 2016),Virgel (4. October 2016)

  7. #4
    Kami-sama Avatar von galudo
    Registriert seit
    Mar 2015
    Beiträge
    1.369
    Punkte
    25.903
    Errungenschaften:
    TomodachisTagger ProfiHyperaktivSenpaiGang Leader

    AW: Nanatsu no Taizai: Seisen no Shirushi [Jap-Dub][Ger-Sub][720p][HDTV] - NKDE

    Episode 04 Online
    Anime Special von Nanatsu no Taizai somit vollendet
    SUPPORT UND REUP ANFRAGEN NUR >> [Links sind nur für registrierte und aktivierte Nutzer sichtbar. Klicke hier um dich zu registrieren.] <<
    Bitte IMMER den Thread-Link mitschicken.

  8. 1 Benutzer sagt Danke:

    thereverend (10. October 2016)

Stichworte

Lesezeichen

Berechtigungen

  • Neue Themen erstellen: Nein
  • Themen beantworten: Nein
  • Anhänge hochladen: Nein
  • Beiträge bearbeiten: Nein
  •  

1 2 3 4 5 6 7 8 9 10 11 12 13 14 15 16 17 18 19 20 21 22 23 24 25 26 27 28 29 30 31 32 33 34 35 36 37 38 39 40 41 42 43 44 45 46 47 48 49 50 51 52 53 54 55 56 57 58 59 60 61 62 63 64 65 66 67 68 69 70 71 72 73 74 75 76 77 78 79 80 81 82 83 84 85 86 87 88 89 90 91 92 93 94 95 96 97 98 99 100 101 102 103 104 105 106 107 108 109 110 111 112 113 114 115 116 117 118 119 120 121 122 123 124 125 126 127 128 129 130 131 132 133 134 135 136 137 138 139 140 141 142 143 144 145 146 147 148 149 150 151 152 153 154 155 156 157 158