Ergebnis 1 bis 1 von 1

Thema: Night Wizard [Jap-Dub][Ger-Sub][720p][HDTV] - AnF

Dieser Thread wurde noch nicht bewertet. Bewerte ihn doch, wenn er dir gefällt!
  1. #1
    United we Stand Avatar von 00Ryuji00
    Registriert seit
    Oct 2012
    Beiträge
    3.902
    Punkte
    99.938
    Errungenschaften:
    TomodachisGang LeaderHikikomoriTagger Amateur50000 Erfahrungspunkte

    Night Wizard [Jap-Dub][Ger-Sub][720p][HDTV] - AnF


    Night Wizard
    ナイトウィザード






    Kurzbeschreibung:
    Zitat Zitat von AniSearch.com
    Ihre Eltern hat Shihou Elis nie kennen gelernt; sie ist in einem Waisenhaus aufgewachsen, in welches ein mysteriöser "Onkel" ihr regelmäßig weiße Rosen und Briefe schickte - und ihr darin versprach, sie an ihrem siebzehnten Geburtstag zu besuchen.

    Nachdem Elis kurz vor Ende des Schuljahres auf eine andere Oberschule gewechselt ist, wird sie auch schon vom Astronomieklub der Schule angeworben. Zu ihrer Überraschung erfährt sie, dass die beiden Klubmitglieder, die Schrein-Jungfrau Akabane Kureha und der Schwertkämpfer Renji Hiiragi, letzterer mit dem Spitznamen "der fallende Mann", mächtige "Nachtzauberer" sind. Im Auftrag einer Organisation, unter der Leitung eines Mädchens namens Anzelotto, beschützen diese Nachtzauberer die Welt gegen die Angriffe der "Emulatoren", finstere Geschöpfe der Dämonenfürsten, welche gegen die Auswirkungen wissenschaftlicher Erkenntnisse immun sind und allein durch Magie bekämpft werden können....mehr


    Spieldauer: 25min
    Genre: Abenteuer
    Nebengenres: Abenteuer, Action, Drama, Fantasy, Komödie, Mystery, Scifi
    Jahr: 2007
    Sprache: Japanisch
    Untertitel: Deutsch
    Größe pro Folge: ~223 MiB
    Episodenanzahl: 13/13
    Format: MKV
    Auflösung: 720p (16:9)
    Videocodec: x264 (AVC)
    Audiocodec: MPEG Audio
    Releasegruppe: AnF
    Hoster: Share-Online, Uploaded


    MediaInfo
    Code:
    
    Format                                   : Matroska
    Format version                           : Version 1
    File size                                : 223 MiB
    Duration                                 : 25mn 29s
    Overall bit rate mode                    : Variable
    Overall bit rate                         : 1 220 Kbps
    Encoded date                             : UTC 2008-09-02 15:53:11
    Writing application                      : mkvmerge v2.2.0 ('Turn It On Again') built on Mar  4 2008 12:58:26
    Writing library                          : libebml v0.7.7 + libmatroska v0.8.1
    
    Video
    ID                                       : 1
    Format                                   : AVC
    Format/Info                              : Advanced Video Codec
    Format profile                           : [email protected]
    Format settings, CABAC                   : Yes
    Format settings, ReFrames                : 3 frames
    Codec ID                                 : V_MPEG4/ISO/AVC
    Duration                                 : 25mn 29s
    Bit rate                                 : 1 102 Kbps
    Width                                    : 1 280 pixels
    Height                                   : 720 pixels
    Display aspect ratio                     : 16:9
    Frame rate mode                          : Constant
    Frame rate                               : 23.976 fps
    Color space                              : YUV
    Chroma subsampling                       : 4:2:0
    Bit depth                                : 8 bits
    Scan type                                : Progressive
    Bits/(Pixel*Frame)                       : 0.050
    Stream size                              : 197 MiB (89%)
    Writing library                          : x264 core 59 r826M 138601d
    Encoding settings                        : cabac=1 / ref=3 / deblock=1:0:0 / analyse=0x3:0x113 / me=hex / subme=6 / me-prepass=0 / brdo=1 / mixed_ref=0 / me_range=16 / chroma_me=1 / trellis=1 / 8x8dct=1 / cqm=0 / deadzone=21,11 / chroma_qp_offset=0 / threads=3 / nr=0 / decimate=1 / mbaff=0 / bframes=3 / b_pyramid=1 / b_adapt=1 / b_bias=0 / direct=1 / wpredb=1 / bime=1 / keyint=250 / keyint_min=25 / scenecut=40(pre) / rc=2pass / bitrate=1102 / ratetol=1.0 / rceq='blurCplx^(1-qComp)' / qcomp=1.00 / qpmin=10 / qpmax=51 / qpstep=4 / cplxblur=20.0 / qblur=0.5 / ip_ratio=1.40 / pb_ratio=1.30 / aq=2:1.00
    Language                                 : English
    Default                                  : Yes
    Forced                                   : No
    
    Audio
    ID                                       : 2
    Format                                   : MPEG Audio
    Format version                           : Version 1
    Format profile                           : Layer 3
    Mode                                     : Joint stereo
    Mode extension                           : MS Stereo
    Codec ID                                 : A_MPEG/L3
    Codec ID/Hint                            : MP3
    Duration                                 : 25mn 29s
    Bit rate mode                            : Variable
    Bit rate                                 : 114 Kbps
    Nominal bit rate                         : 128 Kbps
    Channel(s)                               : 2 channels
    Sampling rate                            : 48.0 KHz
    Compression mode                         : Lossy
    Stream size                              : 20.9 MiB (9%)
    Writing library                          : LAME3.98a
    Encoding settings                        : -m j -V 4 -q 2 -lowpass 17 --abr 128
    Default                                  : Yes
    Forced                                   : No
    
    




    Geschützter Bereich - Bedanke dich beim Poster, um den Bereich sehen zu können
    Hier erfährst Du wie Du Dich bedanken kannst oder werde jetzt Premium Mitglied ab einer Spende von 5€ und erhalte sofortigen Zugriff auf den Downloadbereich!

    [Links sind nur für registrierte und aktivierte Nutzer sichtbar. Klicke hier um dich zu registrieren.]
    !!!Alle Anliegen bezüglich Uploads werden nur mit direktem Threadlink zum Angebot bearbeitet!!!

    Re-Uploadanfragen nur per PN - Ihr könnt mir auch Listen schicken

    Re-Uploads erfolgen meist innerhalb 24h, kann aber auch bis zu 7 Tage dauern

    [Links sind nur für registrierte und aktivierte Nutzer sichtbar. Klicke hier um dich zu registrieren.] | [Links sind nur für registrierte und aktivierte Nutzer sichtbar. Klicke hier um dich zu registrieren.] | >[Links sind nur für registrierte und aktivierte Nutzer sichtbar. Klicke hier um dich zu registrieren.]<
    [Links sind nur für registrierte und aktivierte Nutzer sichtbar. Klicke hier um dich zu registrieren.]

  2. 11 Benutzer sagen Danke:

    Aluaran (7. July 2016),Asturaetus (20. August 2016),chopper23 (15. July 2016),johnny10 (23. July 2016),Magikarp (9. July 2016),realmadridcf (16. August 2016),Ronae (7. July 2016),sansaku (4. August 2016),TheYoAsakura (7. July 2016),tigerhai (22. July 2016),tmcx (9. July 2016)

Lesezeichen

Berechtigungen

  • Neue Themen erstellen: Nein
  • Themen beantworten: Nein
  • Anhänge hochladen: Nein
  • Beiträge bearbeiten: Nein
  •  

1 2 3 4 5 6 7 8 9 10 11 12 13 14 15 16 17 18 19 20 21 22 23 24 25 26 27 28 29 30 31 32 33 34 35 36 37 38 39 40 41 42 43 44 45 46 47 48 49 50 51 52 53 54 55 56 57 58 59 60 61 62 63 64 65 66 67 68 69 70 71 72 73 74 75 76 77 78 79 80 81 82 83 84 85 86 87 88 89 90 91 92 93 94 95 96 97 98 99 100 101 102 103 104 105 106 107 108 109 110 111 112 113 114 115 116 117 118 119 120 121 122 123 124 125 126 127 128 129 130 131 132 133 134 135 136 137 138 139 140 141 142 143 144 145 146 147 148 149 150 151 152 153 154 155 156 157 158