Ergebnis 1 bis 1 von 1

Thema: Niji-iro Days [Eingestellt][Jap-Dub][Ger-Sub][720p][HDTV] - NoriS

Dieser Thread wurde noch nicht bewertet. Bewerte ihn doch, wenn er dir gefällt!
  1. #1
    Kami-sama Avatar von galudo
    Registriert seit
    Mar 2015
    Beiträge
    1.371
    Punkte
    26.058
    Errungenschaften:
    TomodachisTagger ProfiHyperaktivSenpaiGang Leader

    Niji-iro Days [Eingestellt][Jap-Dub][Ger-Sub][720p][HDTV] - NoriS

    Niji-iro Days
    虹色デイズ
    Rainbow Days



    Kurzbeschreibung
    Die Geschichte handelt von den vier guten Freunden Natsuki, Tomoya, Keiichi und Tsuyoshi. Die Jungs verbringen gemeinsam ihren Alltag und haben dabei jede Menge Spaß. Ihr Gesprächsthema Nummer 1 ist die Liebe, doch genau damit hat Natsuki so seine Probleme: Sein großer Schwarm Anna, ein Mädchen aus einer anderen Klasse, fühlt sich, trotz all seinen Bemühungen, nicht zu ihm hingezogen. Doch wofür hätte man denn Freunde, wenn sich diese nicht in die Beziehung einmischen würden?
    Format: MP4
    Sprache: Japanisch
    Untertitel: Deutsch
    Genre: Drama, Komödie, Romanze, Slice of Life
    Größe: ~ 380 MB pro Folge | Gesamtgröße: 0,38 GB
    Dauer: ~ 13 Minuten
    Jahr: 2016
    Video: 720p
    Source: HDTV
    Subgroup / Releasegroup: Nori-Subs

    Hoster: Share-Online | Uploaded
    Passwort: siehe unten


    Datei-Info
    Spoiler
    Code:
    General
    Complete name                  : [NoriS]_Nijiiro_Days_Episode_01(1280x720 x264 AAC).mp4
    Format                         : MPEG-4
    Format profile                 : Base Media / Version 2
    Codec ID                       : mp42
    File size                      : 382 MiB
    Duration                       : 12mn 59s
    Overall bit rate mode          : Variable
    Overall bit rate               : 4 111 Kbps
    Encoded date                   : UTC 2036-02-06 06:28:16
    Tagged date                    : UTC 2036-02-06 06:28:16
    Writing application            : HandBrake 0.10.2 2015060900
    
    Video
    ID                             : 1
    Format                         : AVC
    Format/Info                    : Advanced Video Codec
    Format profile                 : [email protected]
    Format settings, CABAC         : Yes
    Format settings, ReFrames      : 9 frames
    Codec ID                       : avc1
    Codec ID/Info                  : Advanced Video Coding
    Duration                       : 12mn 59s
    Bit rate                       : 3 944 Kbps
    Width                          : 1 280 pixels
    Height                         : 720 pixels
    Display aspect ratio           : 16:9
    Frame rate mode                : Variable
    Frame rate                     : 23.976 fps
    Minimum frame rate             : 23.810 fps
    Maximum frame rate             : 24.390 fps
    Color space                    : YUV
    Chroma subsampling             : 4:2:0
    Bit depth                      : 8 bits
    Scan type                      : Progressive
    Bits/(Pixel*Frame)             : 0.179
    Stream size                    : 367 MiB (96%)
    Writing library                : x264 core 142 r2479 dd79a61
    Encoding settings              : cabac=1 / ref=9 / deblock=1:0:0 / analyse=0x1:0x131 / me=tesa / subme=11 / psy=1 / psy_rd=1.00:0.00 / mixed_ref=1 / me_range=24 / chroma_me=1 / trellis=2 / 8x8dct=0 / cqm=0 / deadzone=21,11 / fast_pskip=0 / chroma_qp_offset=-2 / threads=6 / lookahead_threads=1 / sliced_threads=0 / nr=0 / decimate=1 / interlaced=0 / bluray_compat=0 / constrained_intra=0 / bframes=16 / b_pyramid=2 / b_adapt=2 / b_bias=0 / direct=3 / weightb=1 / open_gop=0 / weightp=2 / keyint=240 / keyint_min=24 / scenecut=40 / intra_refresh=0 / rc_lookahead=60 / rc=crf / mbtree=1 / crf=12.0 / qcomp=0.60 / qpmin=0 / qpmax=69 / qpstep=4 / vbv_maxrate=20000 / vbv_bufsize=25000 / crf_max=0.0 / nal_hrd=none / filler=0 / ip_ratio=1.40 / aq=1:1.00
    Encoded date                   : UTC 2036-02-06 06:28:16
    Tagged date                    : UTC 2036-02-06 06:28:16
    Color range                    : Limited
    Color primaries                : BT.709
    Transfer characteristics       : BT.709
    Matrix coefficients            : BT.709
    
    Audio
    ID                             : 2
    Format                         : AAC
    Format/Info                    : Advanced Audio Codec
    Format profile                 : LC
    Codec ID                       : 40
    Duration                       : 12mn 59s
    Bit rate mode                  : Variable
    Bit rate                       : 161 Kbps
    Channel(s)                     : 2 channels
    Channel positions              : Front: L R
    Sampling rate                  : 48.0 KHz
    Compression mode               : Lossy
    Stream size                    : 14.9 MiB (4%)
    Title                          : Stereo / Stereo
    Language                       : Japanese
    Encoded date                   : UTC 2036-02-06 06:28:16
    Tagged date                    : UTC 2036-02-06 06:28:16


    Folgen 01 / 12 online
    Folgen einzeln ladbar



    || Download & Passwort ||


    Geschützter Bereich - Bedanke dich beim Poster, um den Bereich sehen zu können
    Hier erfährst Du wie Du Dich bedanken kannst oder werde jetzt Premium Mitglied ab einer Spende von 5€ und erhalte sofortigen Zugriff auf den Downloadbereich!

    Niji-iro-Days einer anderen Subgruppe:
    [Links sind nur für registrierte und aktivierte Nutzer sichtbar. Klicke hier um dich zu registrieren.]

    Geändert von galudo (12. October 2016 um 18:40 Uhr) Grund: Subgruppe existiert nicht mehr
    SUPPORT UND REUP ANFRAGEN NUR >> [Links sind nur für registrierte und aktivierte Nutzer sichtbar. Klicke hier um dich zu registrieren.] <<
    Bitte IMMER den Thread-Link mitschicken.

  2. 4 Benutzer sagen Danke:

    Aizen-Sama (Gestern),midnighter (25. January 2016),Spark (14. February 2016),Valetinese (18. January 2016)

Stichworte

Lesezeichen

Berechtigungen

  • Neue Themen erstellen: Nein
  • Themen beantworten: Nein
  • Anhänge hochladen: Nein
  • Beiträge bearbeiten: Nein
  •  

1 2 3 4 5 6 7 8 9 10 11 12 13 14 15 16 17 18 19 20 21 22 23 24 25 26 27 28 29 30 31 32 33 34 35 36 37 38 39 40 41 42 43 44 45 46 47 48 49 50 51 52 53 54 55 56 57 58 59 60 61 62 63 64 65 66 67 68 69 70 71 72 73 74 75 76 77 78 79 80 81 82 83 84 85 86 87 88 89 90 91 92 93 94 95 96 97 98 99 100 101 102 103 104 105 106 107 108 109 110 111 112 113 114 115 116 117 118 119 120 121 122 123 124 125 126 127 128 129 130 131 132 133 134 135 136 137 138 139 140 141 142 143 144 145 146 147 148 149 150 151 152 153 154 155 156 157 158