Ergebnis 1 bis 1 von 1

Thema: Norn9: Norn + Nonet + Special [Jap-Dub][Ger-Sub][720p-8Bit/10Bit][HDTV] - SHFS

Dieser Thread wurde noch nicht bewertet. Bewerte ihn doch, wenn er dir gefällt!
  1. #1
    Uploader Avatar von Filbo11
    Registriert seit
    Jan 2015
    Beiträge
    931
    Punkte
    17.255
    Errungenschaften:
    TomodachisErste Gruppe1 Jahr registriertCreated Album picturesTagger First Class

    Norn9: Norn + Nonet + Special [Jap-Dub][Ger-Sub][720p-8Bit/10Bit][HDTV] - SHFS

    Norn 9 Norun+Nonet
    NORN9 ノルン+ノネット
    Norn 9: Norn + Nonetto
    Norn9




    Beschreibung

    In der nicht allzu weit entfernten Zukunft, folgt der Mittelschüler Sorata Suzuhara dem Klang eines Liedes und wird plötzlich durch die Zeit geschleudert. Ehe er sich versieht, ist er an einem ihm völlig unbekannten Ort gelandet, der ihn jedoch sehr an die Illustrationen seiner Geschichtsbücher erinnert. In dieser für ihn völlig neuen Welt trifft er drei junge Damen und neun junge Männer, denen er sich auf ihrer Reise anschließt.

    Ihn und seine neu gewonnenen Freunde erwartet eine fantastische Reise an Bord des sagenumwobenen Schiffes Norn ‒ einer gigantischen Sphäre, die durch die Luft schwebt.


    Format: mkv
    Dauer: ca. 24 min
    Größe: ca. 500-699 MB [8Bit] / 488-679 MB [10Bit]
    Episodenanzahl: 12/12 + 1/1
    Sprache: Japanisch
    Untertitel: Deutsch
    Group: [Shiroi-Fansubs]
    Hoster: Uploaded.net & Share-Online.biz
    kein PW


    Screenshots & MediaInfo

    8Bit
    [Links sind nur für registrierte und aktivierte Nutzer sichtbar. Klicke hier um dich zu registrieren.]

    Code:
    General
    
    Complete name               : [SHFS] Norn9 - Norn + Nonet - 01 (8bit, 720p, x264, AAC)[C25643D2].mkv
    Format                      : Matroska
    Format version              : Version 4 / Version 2
    File size                   : 699 MiB
    Duration                    : 23mn 39s
    Overall bit rate            : 4 129 Kbps
    Movie name                  : [SHFS] Norn9 - Norn + Nonet - 01 (8bit, 720p, x264, AAC) - German Sub
    Encoded date                : UTC 2016-01-25 10:53:07
    Writing application         : mkvmerge v8.8.0 ('Wind at my back') 32bit
    Writing library             : libebml v1.3.3 + libmatroska v1.4.4
    
    Video
    ID                          : 1
    Format                      : AVC
    Format/Info                 : Advanced Video Codec
    Format profile              : [email protected]
    Format settings, CABAC      : Yes
    Format settings, ReFrames   : 8 frames
    Codec ID                    : V_MPEG4/ISO/AVC
    Duration                    : 23mn 39s
    Bit rate                    : 3 875 Kbps
    Width                       : 1 280 pixels
    Height                      : 720 pixels
    Display aspect ratio        : 16:9
    Frame rate mode             : Constant
    Frame rate                  : 23.976 (24000/1001) fps
    Color space                 : YUV
    Chroma subsampling          : 4:2:0
    Bit depth                   : 8 bits
    Scan type                   : Progressive
    Bits/(Pixel*Frame)          : 0.175
    Stream size                 : 656 MiB (94%)
    Title                       : Original
    Writing library             : x264 core 148 r2597kMod e86f3a1
    Encoding settings           : cabac=1 / ref=8 / deblock=1:-1:-2 / analyse=0x3:0x133 / me=umh / subme=10 / psy=1 / fade_compensate=0.00 / psy_rd=0.80:0.10 / mixed_ref=1 / me_range=32 / chroma_me=1 / trellis=2 / 8x8dct=1 / cqm=0 / deadzone=21,11 / fast_pskip=0 / chroma_qp_offset=-3 / threads=12 / lookahead_threads=3 / sliced_threads=0 / nr=0 / decimate=1 / interlaced=0 / bluray_compat=0 / constrained_intra=0 / fgo=0 / bframes=16 / b_pyramid=2 / b_adapt=2 / b_bias=0 / direct=3 / weightb=1 / open_gop=0 / weightp=2 / keyint=240 / keyint_min=23 / scenecut=40 / intra_refresh=0 / rc_lookahead=75 / rc=crf / mbtree=1 / crf=15.5000 / qcomp=0.60 / qpmin=0 / qpmax=69 / qpstep=4 / ip_ratio=1.40 / aq=2:0.80
    Language                    : Japanese
    Default                     : Yes
    Forced                      : No
    
    Audio
    ID                          : 2
    Format                      : AAC
    Format/Info                 : Advanced Audio Codec
    Format profile              : LC
    Codec ID                    : A_AAC
    Duration                    : 23mn 39s
    Bit rate                    : 252 Kbps
    Channel(s)                  : 2 channels
    Channel positions           : Front: L R
    Sampling rate               : 48.0 KHz
    Frame rate                  : 46.875 fps (1024 spf)
    Compression mode            : Lossy
    Stream size                 : 42.7 MiB (6%)
    Title                       : Japanisch
    Language                    : Japanese
    Default                     : Yes
    Forced                      : No
    
    Menu
    00:00:00.000                : :Vorspann
    00:03:46.017                : :Opening
    00:05:15.982                : :Teil 1
    00:13:28.975                : :Teil 2 + Ending
    00:23:29.992                : :Nächstes Mal ...


    10Bit
    [Links sind nur für registrierte und aktivierte Nutzer sichtbar. Klicke hier um dich zu registrieren.]

    Code:
    General
    
    Complete name               : [SHFS] Norn9 - Norn + Nonet - 01 (10bit, 720p, x264, AAC)[2C4ABE1D].mkv
    Format                      : Matroska
    Format version              : Version 4 / Version 2
    File size                   : 680 MiB
    Duration                    : 23mn 40s
    Overall bit rate            : 4 017 Kbps
    Movie name                  : [SHFS] Norn9 - Norn + Nonet - 01 (10bit, 720p, x264, AAC) - German Sub
    Encoded date                : UTC 2016-01-25 10:52:33
    Writing application         : mkvmerge v8.8.0 ('Wind at my back') 32bit
    Writing library             : libebml v1.3.3 + libmatroska v1.4.4
    Attachments                 : RaleighLTStd-Medium.otf
    
    Video
    ID                          : 1
    Format                      : AVC
    Format/Info                 : Advanced Video Codec
    Format profile              : High [email protected]
    Format settings, CABAC      : Yes
    Format settings, ReFrames   : 16 frames
    Codec ID                    : V_MPEG4/ISO/AVC
    Duration                    : 23mn 39s
    Bit rate                    : 3 762 Kbps
    Width                       : 1 280 pixels
    Height                      : 720 pixels
    Display aspect ratio        : 16:9
    Frame rate mode             : Constant
    Frame rate                  : 23.976 (24000/1001) fps
    Color space                 : YUV
    Chroma subsampling          : 4:2:0
    Bit depth                   : 10 bits
    Scan type                   : Progressive
    Bits/(Pixel*Frame)          : 0.170
    Stream size                 : 637 MiB (94%)
    Title                       : Original
    Writing library             : x264 core 148 r2597kMod e86f3a1
    Encoding settings           : cabac=1 / ref=16 / deblock=1:-1:-2 / analyse=0x3:0x133 / me=umh / subme=10 / psy=1 / fade_compensate=0.00 / psy_rd=0.80:0.10 / mixed_ref=1 / me_range=32 / chroma_me=1 / trellis=2 / 8x8dct=1 / cqm=0 / deadzone=21,11 / fast_pskip=0 / chroma_qp_offset=-3 / threads=12 / lookahead_threads=3 / sliced_threads=0 / nr=0 / decimate=1 / interlaced=0 / bluray_compat=0 / constrained_intra=0 / fgo=0 / bframes=16 / b_pyramid=2 / b_adapt=2 / b_bias=0 / direct=3 / weightb=1 / open_gop=0 / weightp=2 / keyint=240 / keyint_min=23 / scenecut=40 / intra_refresh=0 / rc_lookahead=75 / rc=crf / mbtree=1 / crf=15.0000 / qcomp=0.60 / qpmin=0 / qpmax=81 / qpstep=4 / ip_ratio=1.40 / aq=2:0.80
    Language                    : Japanese
    Default                     : Yes
    Forced                      : No
    
    Audio
    ID                          : 2
    Format                      : AAC
    Format/Info                 : Advanced Audio Codec
    Format profile              : LC
    Codec ID                    : A_AAC
    Duration                    : 23mn 39s
    Bit rate                    : 252 Kbps
    Channel(s)                  : 2 channels
    Channel positions           : Front: L R
    Sampling rate               : 48.0 KHz
    Frame rate                  : 46.875 fps (1024 spf)
    Compression mode            : Lossy
    Stream size                 : 42.7 MiB (6%)
    Title                       : Japanisch
    Language                    : Japanese
    Default                     : Yes
    Forced                      : No
    
    Text
    ID                          : 3
    Format                      : ASS
    Codec ID                    : S_TEXT/ASS
    Codec ID/Info               : Advanced Sub Station Alpha
    Duration                    : 23mn 29s
    Bit rate                    : 227 bps
    Count of elements           : 427
    Compression mode            : Lossless
    Stream size                 : 39.1 KiB (0%)
    Title                       : Deutsch
    Language                    : German
    Default                     : Yes
    Forced                      : No
    
    Menu
    00:00:00.000                : :Vorspann
    00:03:46.017                : :Opening
    00:05:15.982                : :Teil 1
    00:13:28.975                : :Teil 2 + Ending
    00:23:29.992                : :Nächstes Mal ...


    Alle Mirrors untereinander kompatibel
    Folgen einzeln ladbar


    Download
    Geschützter Bereich - Bedanke dich beim Poster, um den Bereich sehen zu können
    Hier erfährst Du wie Du Dich bedanken kannst oder werde jetzt Premium Mitglied ab einer Spende von 5€ und erhalte sofortigen Zugriff auf den Downloadbereich!


    Geändert von Filbo11 (12. April 2016 um 09:14 Uhr)

    [Links sind nur für registrierte und aktivierte Nutzer sichtbar. Klicke hier um dich zu registrieren.]

    Ich wäre allen sehr dankbar, die mir gravierende Fehler in meinen Releases per PN melden

  2. 10 Benutzer sagen Danke:

    Akulti (12. April 2016),Asuka Langley (9. April 2016),Drachengott (6. April 2016),IshiFuroito (17. April 2016),kadaj93 (9. April 2016),KrachbumAlex (6. April 2016),Kuraiko55 (9. April 2016),Pazu (3. November 2016),Sandy7580 (10. April 2016),showtekia (16. April 2016)

Stichworte

Lesezeichen

Berechtigungen

  • Neue Themen erstellen: Nein
  • Themen beantworten: Nein
  • Anhänge hochladen: Nein
  • Beiträge bearbeiten: Nein
  •  

1 2 3 4 5 6 7 8 9 10 11 12 13 14 15 16 17 18 19 20 21 22 23 24 25 26 27 28 29 30 31 32 33 34 35 36 37 38 39 40 41 42 43 44 45 46 47 48 49 50 51 52 53 54 55 56 57 58 59 60 61 62 63 64 65 66 67 68 69 70 71 72 73 74 75 76 77 78 79 80 81 82 83 84 85 86 87 88 89 90 91 92 93 94 95 96 97 98 99 100 101 102 103 104 105 106 107 108 109 110 111 112 113 114 115 116 117 118 119 120 121 122 123 124 125 126 127 128 129 130 131 132 133 134 135 136 137 138 139 140 141 142 143 144 145 146 147 148 149 150 151 152 153 154 155 156 157 158