Ergebnis 1 bis 5 von 5

Thema: Norn9: Norn + Nonette [Jap-Dub][Ger-Sub][720p][HDTV] - ASS

Dieser Thread wurde noch nicht bewertet. Bewerte ihn doch, wenn er dir gefällt!
  1. #1
    Kami-sama Avatar von galudo
    Registriert seit
    Mar 2015
    Beiträge
    1.369
    Punkte
    25.903
    Errungenschaften:
    TomodachisTagger ProfiHyperaktivSenpaiGang Leader

    Norn9: Norn + Nonette [Jap-Dub][Ger-Sub][720p][HDTV] - ASS

    Norn9: Norn + Nonette
    NORN9 ノルン+ノネット
    Norn 9 Norun+Nonet
    Norn 9 Norun+Nonetto



    Kurzbeschreibung
    In der nicht allzu weit entfernten Zukunft, folgt der Mittelschüler Sorata Suzuhara dem Klang eines Liedes und wird plötzlich durch die Zeit geschleudert. Ehe er sich versieht, ist er an einem ihm völlig unbekannten Ort gelandet, der ihn jedoch sehr an die Illustrationen seiner Geschichtsbücher erinnert. In dieser für ihn völlig neuen Welt trifft er drei junge Damen und neun junge Männer, denen er sich auf ihrer Reise anschließt.
    Ihn und seine neu gewonnenen Freunde erwartet eine fantastische Reise an Bord des sagenumwobenen Schiffes Norn ‒ einer gigantischen Sphäre, die durch die Luft schwebt.
    Format: MP4
    Sprache: Japanisch
    Untertitel: Deutsch
    Genre: Drama, Fantasy, Mystery, Romanze, Shoujo
    Größe: ~ 340 MB pro Folge | Gesamtgröße: 4,24 GB
    Dauer: ~ 24 Minuten
    Jahr: 2016
    Video: 720p
    Source: HDTV
    Subgroup / Releasegroup: AoiSora-Subs

    Hoster: Share-Online | Uploaded
    Passwort: siehe unten


    Datei-Info
    Spoiler
    Code:
    General
    Complete name                  : Norn 9 - Norn + Nonetto - 01 - Das Schiff, das im Himmel segelt.mp4
    Format                         : MPEG-4
    Format profile                 : Base Media
    Codec ID                       : isom
    File size                      : 349 MiB
    Duration                       : 23mn 59s
    Overall bit rate mode          : Variable
    Overall bit rate               : 2 035 Kbps
    Encoded date                   : UTC 2016-01-14 12:26:09
    Tagged date                    : UTC 2016-01-14 12:26:09
    Writing application            : Yamb 2.1.0.0 [http://yamb.unite-video.com]
    
    Video
    ID                             : 1
    Format                         : AVC
    Format/Info                    : Advanced Video Codec
    Format profile                 : [email protected]
    Format settings, CABAC         : Yes
    Format settings, ReFrames      : 9 frames
    Codec ID                       : avc1
    Codec ID/Info                  : Advanced Video Coding
    Duration                       : 23mn 59s
    Bit rate                       : 1 882 Kbps
    Maximum bit rate               : 5 729 Kbps
    Width                          : 1 280 pixels
    Height                         : 720 pixels
    Display aspect ratio           : 16:9
    Frame rate mode                : Constant
    Frame rate                     : 23.976 fps
    Color space                    : YUV
    Chroma subsampling             : 4:2:0
    Bit depth                      : 8 bits
    Scan type                      : Progressive
    Bits/(Pixel*Frame)             : 0.085
    Stream size                    : 323 MiB (92%)
    Writing library                : x264 core 148 r2638 7599210
    Encoding settings              : cabac=1 / ref=9 / deblock=1:0:0 / analyse=0x3:0x133 / me=umh / subme=9 / psy=1 / psy_rd=1.00:0.00 / mixed_ref=1 / me_range=32 / chroma_me=1 / trellis=2 / 8x8dct=1 / cqm=0 / deadzone=21,11 / fast_pskip=0 / chroma_qp_offset=-2 / threads=12 / lookahead_threads=2 / sliced_threads=0 / nr=0 / decimate=0 / interlaced=0 / bluray_compat=0 / constrained_intra=0 / bframes=9 / b_pyramid=2 / b_adapt=2 / b_bias=0 / direct=3 / weightb=1 / open_gop=0 / weightp=2 / keyint=250 / keyint_min=23 / scenecut=40 / intra_refresh=0 / rc_lookahead=80 / rc=crf / mbtree=1 / crf=17.0 / qcomp=0.80 / qpmin=0 / qpmax=69 / qpstep=4 / vbv_maxrate=2560 / vbv_bufsize=5120 / crf_max=0.0 / nal_hrd=none / filler=0 / ip_ratio=1.40 / aq=3:0.70
    Encoded date                   : UTC 2016-01-15 12:10:57
    Tagged date                    : UTC 2016-01-14 12:26:11
    Color range                    : Limited
    Color primaries                : BT.709
    Transfer characteristics       : BT.709
    Matrix coefficients            : BT.709
    
    Audio
    ID                             : 2
    Format                         : AAC
    Format/Info                    : Advanced Audio Codec
    Format profile                 : LC
    Codec ID                       : 40
    Duration                       : 23mn 59s
    Bit rate mode                  : Variable
    Bit rate                       : 150 Kbps
    Maximum bit rate               : 249 Kbps
    Channel(s)                     : 2 channels
    Channel positions              : Front: L R
    Sampling rate                  : 44.1 KHz
    Compression mode               : Lossy
    Stream size                    : 25.7 MiB (7%)
    Encoded date                   : UTC 2016-01-14 12:26:10
    Tagged date                    : UTC 2016-01-14 12:26:11


    Folgen 12 / 12 online
    Folgen einzeln ladbar



    || Download & Passwort ||


    Geschützter Bereich - Bedanke dich beim Poster, um den Bereich sehen zu können
    Hier erfährst Du wie Du Dich bedanken kannst oder werde jetzt Premium Mitglied ab einer Spende von 5€ und erhalte sofortigen Zugriff auf den Downloadbereich!

    Geändert von galudo (12. October 2016 um 18:30 Uhr) Grund: Folgenupdate
    SUPPORT UND REUP ANFRAGEN NUR >> [Links sind nur für registrierte und aktivierte Nutzer sichtbar. Klicke hier um dich zu registrieren.] <<
    Bitte IMMER den Thread-Link mitschicken.

  2. 24 Benutzer sagen Danke:

    adinin (24. January 2016),AKira_Hidaka (1. April 2016),animefan84 (20. January 2016),Asuka Langley (6. April 2016),Callisto (16. January 2016),ChristianLake (24. January 2016),Dark Justice (24. January 2016),Drachengott (16. January 2016),Drezzo (23. January 2016),imnuan (13. February 2016),julian.schuh (18. January 2016),LawrenceKraft (16. January 2016),Loki92 (17. January 2016),lucky_mer (26. January 2016),Meistermagier (3. March 2016),midnighter (24. January 2016),Miriweth (12. November 2016),muffinhunter (12. April 2016),MViperC (17. January 2016),passi (17. January 2016),showtekia (16. April 2016),Sildurias (3. April 2016),Suigetsu (11. February 2016),Windwusel (17. January 2016)

  3. #2
    Kami-sama Avatar von galudo
    Registriert seit
    Mar 2015
    Beiträge
    1.369
    Punkte
    25.903
    Errungenschaften:
    TomodachisTagger ProfiHyperaktivSenpaiGang Leader

    AW: Norn9: Norn + Nonette [Jap-Dub][Ger-Sub][720p][HDTV] - ASS

    Episode 2 Online
    SUPPORT UND REUP ANFRAGEN NUR >> [Links sind nur für registrierte und aktivierte Nutzer sichtbar. Klicke hier um dich zu registrieren.] <<
    Bitte IMMER den Thread-Link mitschicken.

  4. #3
    Kami-sama Avatar von galudo
    Registriert seit
    Mar 2015
    Beiträge
    1.369
    Punkte
    25.903
    Errungenschaften:
    TomodachisTagger ProfiHyperaktivSenpaiGang Leader

    AW: Norn9: Norn + Nonette [Laufend][Jap-Dub][Ger-Sub][720p][HDTV] - ASS

    Episode 3,4 und 5 Online
    SUPPORT UND REUP ANFRAGEN NUR >> [Links sind nur für registrierte und aktivierte Nutzer sichtbar. Klicke hier um dich zu registrieren.] <<
    Bitte IMMER den Thread-Link mitschicken.

  5. #4
    Kami-sama Avatar von galudo
    Registriert seit
    Mar 2015
    Beiträge
    1.369
    Punkte
    25.903
    Errungenschaften:
    TomodachisTagger ProfiHyperaktivSenpaiGang Leader

    AW: Norn9: Norn + Nonette [Laufend][Jap-Dub][Ger-Sub][720p][HDTV] - ASS

    Episoden 6 bis 11 Online
    SUPPORT UND REUP ANFRAGEN NUR >> [Links sind nur für registrierte und aktivierte Nutzer sichtbar. Klicke hier um dich zu registrieren.] <<
    Bitte IMMER den Thread-Link mitschicken.

  6. #5
    Kami-sama Avatar von galudo
    Registriert seit
    Mar 2015
    Beiträge
    1.369
    Punkte
    25.903
    Errungenschaften:
    TomodachisTagger ProfiHyperaktivSenpaiGang Leader

    AW: Norn9: Norn + Nonette [Jap-Dub][Ger-Sub][720p][HDTV] - ASS

    Episode 12 Online
    SUPPORT UND REUP ANFRAGEN NUR >> [Links sind nur für registrierte und aktivierte Nutzer sichtbar. Klicke hier um dich zu registrieren.] <<
    Bitte IMMER den Thread-Link mitschicken.

Stichworte

Lesezeichen

Berechtigungen

  • Neue Themen erstellen: Nein
  • Themen beantworten: Nein
  • Anhänge hochladen: Nein
  • Beiträge bearbeiten: Nein
  •  

1 2 3 4 5 6 7 8 9 10 11 12 13 14 15 16 17 18 19 20 21 22 23 24 25 26 27 28 29 30 31 32 33 34 35 36 37 38 39 40 41 42 43 44 45 46 47 48 49 50 51 52 53 54 55 56 57 58 59 60 61 62 63 64 65 66 67 68 69 70 71 72 73 74 75 76 77 78 79 80 81 82 83 84 85 86 87 88 89 90 91 92 93 94 95 96 97 98 99 100 101 102 103 104 105 106 107 108 109 110 111 112 113 114 115 116 117 118 119 120 121 122 123 124 125 126 127 128 129 130 131 132 133 134 135 136 137 138 139 140 141 142 143 144 145 146 147 148 149 150 151 152 153 154 155 156 157 158