Ergebnis 1 bis 1 von 1

Thema: Okusama ga Seitokaichou! [Jap-Dub][Ger-Sub][720p][WebRip] - NKDE

Dieser Thread wurde noch nicht bewertet. Bewerte ihn doch, wenn er dir gefällt!
  1. #1
    United we Stand Avatar von 00Ryuji00
    Registriert seit
    Oct 2012
    Beiträge
    3.903
    Punkte
    100.261
    Errungenschaften:
    TomodachisGang LeaderHikikomoriTagger Amateur50000 Erfahrungspunkte

    Okusama ga Seitokaichou! [Jap-Dub][Ger-Sub][720p][WebRip] - NKDE


    Okusama ga Seitokaichou!
    おくさまが生徒会長!
    My Wife is the Student Council President






    Kurzbeschreibung:
    Zitat Zitat von AniSearch.com
    Hayato Izumi ist niedergeschlagen, denn eigentlich wollte er sich zum Schülerratspräsidenten wählen lassen. Doch er wurde von Ui Wakana geschlagen, die bei ihrer Kampagne versprach, „die Liebe von allen Restriktionen auf dem Schulgelände zu befreien“ und dabei mit Kondomen um sich geschmissen hat.*Nun muss er ihr als Vizepräsident bei der Umsetzung dieses Ziels helfen.

    Zu allem Überfluss lädt Wakana sich auch noch selbst bei ihm zu Hause ein, um dem völlig verdutzten Hayato dann auch noch prompt klarzumachen, dass sie seine Verlobte sei.
    Anscheinend waren die Eltern der beiden gute Freunde und haben deren Ehe „arrangiert“ als sie total betrunken waren. Allerdings waren Hayato und Ui*damals erst 3 Jahre alt....mehr


    Spieldauer: 8min
    Genre: Romantische Komödie
    Nebengenres: Ecchi, Komödie, Romanze
    Jahr: 2015
    Sprache: Japanisch
    Untertitel: Deutsch
    Größe pro Folge: ~60.3 MiB
    Episodenanzahl: 12/12
    Format: MP4
    Auflösung: 720p (16:9)
    Videocodec: x264 (AVC)
    Audiocodec: AAC
    Releasegruppe: NKDE
    Hoster: Share-Online, Uploaded


    MediaInfo
    Code:
    
    Format                                   : MPEG-4
    Format profile                           : Base Media / Version 2
    Codec ID                                 : mp42
    File size                                : 60.3 MiB
    Duration                                 : 8mn 0s
    Overall bit rate mode                    : Variable
    Overall bit rate                         : 1 052 Kbps
    Encoded date                             : UTC 2015-08-02 18:34:17
    Tagged date                              : UTC 2015-08-02 18:53:34
    Writing application                      : HandBrake 0.9.9 2013052900
    
    Video
    ID                                       : 1
    Format                                   : AVC
    Format/Info                              : Advanced Video Codec
    Format profile                           : [email protected]
    Format settings, CABAC                   : Yes
    Format settings, ReFrames                : 4 frames
    Codec ID                                 : avc1
    Codec ID/Info                            : Advanced Video Coding
    Duration                                 : 8mn 0s
    Bit rate                                 : 886 Kbps
    Width                                    : 1 280 pixels
    Height                                   : 720 pixels
    Display aspect ratio                     : 16:9
    Frame rate mode                          : Variable
    Frame rate                               : 23.976 fps
    Minimum frame rate                       : 23.810 fps
    Maximum frame rate                       : 1 000.000 fps
    Color space                              : YUV
    Chroma subsampling                       : 4:2:0
    Bit depth                                : 8 bits
    Scan type                                : Progressive
    Bits/(Pixel*Frame)                       : 0.040
    Stream size                              : 50.8 MiB (84%)
    Writing library                          : x264 core 130 r2273 b3065e6
    Encoding settings                        : cabac=1 / ref=1 / deblock=1:0:0 / analyse=0x1:0x111 / me=hex / subme=2 / psy=1 / psy_rd=1.00:0.00 / mixed_ref=0 / me_range=16 / chroma_me=1 / trellis=0 / 8x8dct=0 / cqm=0 / deadzone=21,11 / fast_pskip=1 / chroma_qp_offset=0 / threads=3 / lookahead_threads=1 / sliced_threads=0 / nr=0 / decimate=1 / interlaced=0 / bluray_compat=0 / constrained_intra=0 / bframes=3 / b_pyramid=2 / b_adapt=1 / b_bias=0 / direct=1 / weightb=1 / open_gop=0 / weightp=1 / keyint=240 / keyint_min=24 / scenecut=40 / intra_refresh=0 / rc_lookahead=10 / rc=crf / mbtree=1 / crf=20.0 / qcomp=0.60 / qpmin=0 / qpmax=69 / qpstep=4 / vbv_maxrate=20000 / vbv_bufsize=25000 / crf_max=0.0 / nal_hrd=none / ip_ratio=1.40 / aq=1:1.00
    Encoded date                             : UTC 2015-08-02 18:34:17
    Tagged date                              : UTC 2015-08-02 18:53:34
    Color range                              : Limited
    Color primaries                          : BT.709
    Transfer characteristics                 : BT.709
    Matrix coefficients                      : BT.709
    
    Audio
    ID                                       : 2
    Format                                   : AAC
    Format/Info                              : Advanced Audio Codec
    Format profile                           : LC
    Codec ID                                 : 40
    Duration                                 : 8mn 0s
    Bit rate mode                            : Variable
    Bit rate                                 : 160 Kbps
    Maximum bit rate                         : 284 Kbps
    Channel(s)                               : 2 channels
    Channel positions                        : Front: L R
    Sampling rate                            : 48.0 KHz
    Compression mode                         : Lossy
    Stream size                              : 9.16 MiB (15%)
    Title                                    : Stereo
    Encoded date                             : UTC 2015-08-02 18:34:17
    Tagged date                              : UTC 2015-08-02 18:53:33
    
    





    Geschützter Bereich - Bedanke dich beim Poster, um den Bereich sehen zu können
    Hier erfährst Du wie Du Dich bedanken kannst oder werde jetzt Premium Mitglied ab einer Spende von 5€ und erhalte sofortigen Zugriff auf den Downloadbereich!

    [Links sind nur für registrierte und aktivierte Nutzer sichtbar. Klicke hier um dich zu registrieren.]
    !!!Alle Anliegen bezüglich Uploads werden nur mit direktem Threadlink zum Angebot bearbeitet!!!

    Re-Uploadanfragen nur per PN - Ihr könnt mir auch Listen schicken

    Re-Uploads folgen nach Anfrage meist am Wochenende

    [Links sind nur für registrierte und aktivierte Nutzer sichtbar. Klicke hier um dich zu registrieren.] | [Links sind nur für registrierte und aktivierte Nutzer sichtbar. Klicke hier um dich zu registrieren.] | >[Links sind nur für registrierte und aktivierte Nutzer sichtbar. Klicke hier um dich zu registrieren.]<
    [Links sind nur für registrierte und aktivierte Nutzer sichtbar. Klicke hier um dich zu registrieren.]

  2. 19 Benutzer sagen Danke:

    acer25 (1. November 2016),Angel86 (18. November 2016),Artheanos (6. November 2016),Buze (3. October 2016),cfg1340 (6. December 2016),Cooky1988 (17. October 2016),CrossOvah (25. October 2016),GiftGasBaer (15. November 2016),Jinnay (30. November 2016),Kalchi (3. October 2016),Linpos (21. October 2016),mikle20 (9. October 2016),norby (4. October 2016),Quetzal Coatl (10. November 2016),realmadridcf (20. November 2016),sabs0686 (14. November 2016),Sora (3. October 2016),WolfsBlade (5. October 2016),xRei (9. November 2016)

Lesezeichen

Berechtigungen

  • Neue Themen erstellen: Nein
  • Themen beantworten: Nein
  • Anhänge hochladen: Nein
  • Beiträge bearbeiten: Nein
  •  

1 2 3 4 5 6 7 8 9 10 11 12 13 14 15 16 17 18 19 20 21 22 23 24 25 26 27 28 29 30 31 32 33 34 35 36 37 38 39 40 41 42 43 44 45 46 47 48 49 50 51 52 53 54 55 56 57 58 59 60 61 62 63 64 65 66 67 68 69 70 71 72 73 74 75 76 77 78 79 80 81 82 83 84 85 86 87 88 89 90 91 92 93 94 95 96 97 98 99 100 101 102 103 104 105 106 107 108 109 110 111 112 113 114 115 116 117 118 119 120 121 122 123 124 125 126 127 128 129 130 131 132 133 134 135 136 137 138 139 140 141 142 143 144 145 146 147 148 149 150 151 152 153 154 155 156 157 158