Ergebnis 1 bis 1 von 1

Thema: Okusama wa Mahou Shoujo [Jap-Dub][Ger-Sub][528p][DVDRip]

Dieser Thread wurde noch nicht bewertet. Bewerte ihn doch, wenn er dir gefällt!
  1. #1
    United we Stand Avatar von 00Ryuji00
    Registriert seit
    Oct 2012
    Beiträge
    3.902
    Punkte
    100.092
    Errungenschaften:
    TomodachisGang LeaderHikikomoriTagger Amateur50000 Erfahrungspunkte

    Okusama wa Mahou Shoujo [Jap-Dub][Ger-Sub][528p][DVDRip]


    Okusama wa Mahou Shoujo
    奥さまは魔法少女
    My Wife is a Magical Girl: Bewitched Agnes
    Bewitched Bride
    Madam is a Magical Girl






    Kurzbeschreibung:
    Ureshiko Asaba ist sechsundzwanzig Jahre alt und verheiratet, aber nur wenige Leute haben Kenntnis davon, dass sie ein Magical Girl mit dem Namen "Agnès" ist und als Beschützerin der Stadt, in der sie lebt, fungiert. Eines Tages trifft sie Sayaka Kurenai, bekannt als "Cluje", ein weiteres Magical Girl und die Frau, die als Agnès Nachfolgerin von der magischen Welt bestimmt wurde. Aber Agnès möchte ihre Position als Beschützerin nicht aufgeben, denn sie weiß, dass Cluje den Auftrag hat, die ganze Stadt samt Einwohner auszulöschen und eine neue Stadt zu erschaffen. Um die ganze Sache zu verkomplizieren, muss Agnès auch mit der wachsenden Kluft zu ihrem Ehemann Tamotsu kämpfen, ihre aufkommende Liebe zu Tatsumi Kagura, der bei ihnen als Untermieter lebt, bewältigen und mit dem Umstand, dass sie, wenn sie einen normalen Menschen küsst, alle ihre Kräfte verliert, klar kommen.


    Sprache: Japanisch
    Untertitel: Deutsch
    Episodenanzahl: 13/13
    Format: .mkv
    Auflösung: 528p
    Codec: x264
    Gruppe: Melon-Subs
    Hoster: Share-Online ; Uploaded


    Datei Info:
    Spoiler

    Code:
    
    
    Format                                   : Matroska
    Format version                           : Version 2
    File size                                : 427 MiB
    Duration                                 : 23mn 43s
    Overall bit rate mode                    : Variable
    Overall bit rate                         : 2 518 Kbps
    Encoded date                             : UTC 2010-10-10 12:22:19
    Writing application                      : mkvmerge v3.3.0 ('Language') gebaut am Mar 24 2010 14:59:24
    Writing library                          : libebml v0.8.0 + libmatroska v0.9.0
    Attachment                               : Yes / Yes / Yes / Yes / Yes / Yes / Yes / Yes / Yes / Yes / Yes / Yes / Yes / Yes / Yes / Yes / Yes / Yes / Yes / Yes / Yes / Yes / Yes / Yes / Yes / Yes / Yes / Yes / Yes
    
    Video
    ID                                       : 1
    Format                                   : MPEG-4 Visual
    Format profile                           : Advanced [email protected]
    Format settings, BVOP                    : Yes
    Format settings, QPel                    : No
    Format settings, GMC                     : No warppoints
    Format settings, Matrix                  : Default (H.263)
    Codec ID                                 : V_MS/VFW/FOURCC / XVID
    Codec ID/Hint                            : XviD
    Duration                                 : 23mn 43s
    Bit rate                                 : 2 259 Kbps
    Width                                    : 704 pixels
    Height                                   : 528 pixels
    Display aspect ratio                     : 4:3
    Frame rate mode                          : Constant
    Frame rate                               : 26.455 fps
    Original frame rate                      : 29.970 fps
    Color space                              : YUV
    Chroma subsampling                       : 4:2:0
    Bit depth                                : 8 bits
    Scan type                                : Progressive
    Compression mode                         : Lossy
    Bits/(Pixel*Frame)                       : 0.230
    Stream size                              : 383 MiB (90%)
    Title                                    : Melonsubs
    Writing library                          : XviD 1.1.0 (UTC 2005-11-22)
    Default                                  : Yes
    Forced                                   : No
    
    Audio
    ID                                       : 2
    Format                                   : MPEG Audio
    Format version                           : Version 1
    Format profile                           : Layer 3
    Mode                                     : Joint stereo
    Codec ID                                 : A_MPEG/L3
    Codec ID/Hint                            : MP3
    Duration                                 : 47mn 30s
    Bit rate mode                            : Variable
    Bit rate                                 : 209 Kbps
    Minimum bit rate                         : 32.0 Kbps
    Channel count                            : 2 channels
    Sampling rate                            : 48.0 KHz
    Compression mode                         : Lossy
    Stream size                              : 70.9 MiB (17%)
    Writing library                          : LAME3.97b
    Encoding settings                        : -m j -V 0 -q 2 -lowpass 19.5 --vbr-old -b 32
    Language                                 : Japanese
    Default                                  : Yes
    Forced                                   : No
    
    Text
    ID                                       : 3
    Format                                   : ASS
    Codec ID                                 : S_TEXT/ASS
    Codec ID/Info                            : Advanced Sub Station Alpha
    Compression mode                         : Lossless
    Language                                 : German
    Default                                  : Yes
    Forced                                   : No
    
    







    Geschützter Bereich - Bedanke dich beim Poster, um den Bereich sehen zu können
    Hier erfährst Du wie Du Dich bedanken kannst oder werde jetzt Premium Mitglied ab einer Spende von 5€ und erhalte sofortigen Zugriff auf den Downloadbereich!

    !!!Alle Anliegen bezüglich Uploads werden nur mit direktem Threadlink zum Angebot bearbeitet!!!

    Re-Uploadanfragen nur per PN - Ihr könnt mir auch Listen schicken

    Re-Uploads folgen nach Anfrage meist am Wochenende

    [Links sind nur für registrierte und aktivierte Nutzer sichtbar. Klicke hier um dich zu registrieren.] | [Links sind nur für registrierte und aktivierte Nutzer sichtbar. Klicke hier um dich zu registrieren.] | >[Links sind nur für registrierte und aktivierte Nutzer sichtbar. Klicke hier um dich zu registrieren.]<
    [Links sind nur für registrierte und aktivierte Nutzer sichtbar. Klicke hier um dich zu registrieren.]

  2. 11 Benutzer sagen Danke:

    Akio (17. November 2015),Bloodywaffe (3. February 2016),eraz (4. July 2015),Gebbi (28. July 2015),krasserGaul (26. December 2015),midnighter (5. July 2015),Miles360 (4. July 2015),prinzvegeta (4. July 2015),sharline (8. November 2016),Tzi (5. July 2015),Vice (18. July 2015)

Lesezeichen

Berechtigungen

  • Neue Themen erstellen: Nein
  • Themen beantworten: Nein
  • Anhänge hochladen: Nein
  • Beiträge bearbeiten: Nein
  •  

1 2 3 4 5 6 7 8 9 10 11 12 13 14 15 16 17 18 19 20 21 22 23 24 25 26 27 28 29 30 31 32 33 34 35 36 37 38 39 40 41 42 43 44 45 46 47 48 49 50 51 52 53 54 55 56 57 58 59 60 61 62 63 64 65 66 67 68 69 70 71 72 73 74 75 76 77 78 79 80 81 82 83 84 85 86 87 88 89 90 91 92 93 94 95 96 97 98 99 100 101 102 103 104 105 106 107 108 109 110 111 112 113 114 115 116 117 118 119 120 121 122 123 124 125 126 127 128 129 130 131 132 133 134 135 136 137 138 139 140 141 142 143 144 145 146 147 148 149 150 151 152 153 154 155 156 157 158