Ergebnis 1 bis 1 von 1

Thema: One Piece: Adventure of Nebulandia [Jap-Dub][Ger-Sub][1080p][HDTV] - OP-Tube

Dieser Thread wurde noch nicht bewertet. Bewerte ihn doch, wenn er dir gefällt!
  1. #1
    Kami-sama Avatar von galudo
    Registriert seit
    Mar 2015
    Beiträge
    1.369
    Punkte
    25.903
    Errungenschaften:
    TomodachisTagger ProfiHyperaktivSenpaiGang Leader

    One Piece: Adventure of Nebulandia [Jap-Dub][Ger-Sub][1080p][HDTV] - OP-Tube

    One Piece: Adventure of Nebulandia
    ワンピース~アドベンチャー オブ ネブランディア~
    One Piece Special 16



    Kurzbeschreibung
    Das TV-Special Adventure of Nebulandia wurde am 19. Dezember 2015 ausgestrahlt und handelte von einer erneuten Begegnung mit der Foxy-Piratenbande in der Neuen Welt. Mit seinen drei neuen Mitstreitern fordert er die Strohhut-Bande zu einem erneuten Davy Back Fight heraus, um Rache an ihnen für das zu nehmen, was sie ihm auf Longring-Longland angetan haben.
    Format: MP4
    Sprache: Japanisch
    Untertitel: Deutsch
    Genre: Fighting-Shounen, Abenteuer, Action, Drama
    Größe: 1,99 GB
    Dauer: ~ 106 Minuten
    Jahr: 2015
    Video: 1080p
    Source: HDTV
    Subgroup / Releasegroup: OnePiece-Tube

    Hoster: Share-Online | Uploaded
    Passwort: siehe unten


    Datei-Info
    Spoiler
    Code:
    General
    Complete name                  : One Piece Adventure of Nebulandia GER SUB by OnePiece-Tube Part 1.mp4
    Format                         : MPEG-4
    Format profile                 : Base Media / Version 2
    Codec ID                       : mp42
    File size                      : 652 MiB
    Duration                       : 35mn 23s
    Overall bit rate mode          : Variable
    Overall bit rate               : 2 573 Kbps
    Encoded date                   : UTC 2015-12-23 15:55:03
    Tagged date                    : UTC 2015-12-23 15:55:03
    
    Video
    ID                             : 1
    Format                         : AVC
    Format/Info                    : Advanced Video Codec
    Format profile                 : [email protected]
    Format settings, CABAC         : Yes
    Format settings, ReFrames      : 5 frames
    Codec ID                       : avc1
    Codec ID/Info                  : Advanced Video Coding
    Duration                       : 35mn 23s
    Bit rate                       : 2 418 Kbps
    Width                          : 1 920 pixels
    Height                         : 1 080 pixels
    Display aspect ratio           : 16:9
    Frame rate mode                : Variable
    Frame rate                     : 29.970 fps
    Minimum frame rate             : 29.970 fps
    Maximum frame rate             : 29.980 fps
    Color space                    : YUV
    Chroma subsampling             : 4:2:0
    Bit depth                      : 8 bits
    Scan type                      : Progressive
    Bits/(Pixel*Frame)             : 0.039
    Stream size                    : 612 MiB (94%)
    Language                       : English
    Encoded date                   : UTC 2015-12-23 15:55:03
    Tagged date                    : UTC 2015-12-23 15:55:03
    
    Audio
    ID                             : 2
    Format                         : AAC
    Format/Info                    : Advanced Audio Codec
    Format profile                 : LC
    Codec ID                       : 40
    Duration                       : 35mn 23s
    Source duration                : 35mn 23s
    Bit rate mode                  : Variable
    Bit rate                       : 149 Kbps
    Channel(s)                     : 2 channels
    Channel positions              : Front: L R
    Sampling rate                  : 44.1 KHz
    Compression mode               : Lossy
    Stream size                    : 37.8 MiB (6%)
    Source stream size             : 37.8 MiB (6%)
    Language                       : English
    Encoded date                   : UTC 2015-12-23 15:55:03
    Tagged date                    : UTC 2015-12-23 15:55:03
    mdhd_Duration                  : 2123845
    


    Special 01 / 01 online
    aufgeteilt in 3 Parts



    || Download & Passwort ||


    Geschützter Bereich - Bedanke dich beim Poster, um den Bereich sehen zu können
    Hier erfährst Du wie Du Dich bedanken kannst oder werde jetzt Premium Mitglied ab einer Spende von 5€ und erhalte sofortigen Zugriff auf den Downloadbereich!

    Weiteres von One Piece:
    [Links sind nur für registrierte und aktivierte Nutzer sichtbar. Klicke hier um dich zu registrieren.]
    [Links sind nur für registrierte und aktivierte Nutzer sichtbar. Klicke hier um dich zu registrieren.]

    Geändert von galudo (12. October 2016 um 19:29 Uhr)
    SUPPORT UND REUP ANFRAGEN NUR >> [Links sind nur für registrierte und aktivierte Nutzer sichtbar. Klicke hier um dich zu registrieren.] <<
    Bitte IMMER den Thread-Link mitschicken.

  2. 24 Benutzer sagen Danke:

    Animejunkie (16. April 2016),baloo (5. January 2016),codin19 (30. January 2016),deofration (1. January 2016),DetektivConanDE (21. February 2016),Dipack (13. January 2016),DJPAUL1990 (3. January 2016),Ecos (2. January 2016),Frag0042 (31. December 2015),Future (13. January 2016),Hakku (17. January 2016),Hixx (1. January 2016),Ignasum (1. January 2016),Kartox (1. January 2016),manninator (1. January 2016),manuel4193 (31. December 2015),midnighter (2. January 2016),MViperC (1. January 2016),Nesal (27. March 2016),Paulus (1. January 2016),prinzvegeta (4. January 2016),trenooj (5. January 2016),TrM (13. February 2016),Virgel (3. March 2016)

Stichworte

Lesezeichen

Berechtigungen

  • Neue Themen erstellen: Nein
  • Themen beantworten: Nein
  • Anhänge hochladen: Nein
  • Beiträge bearbeiten: Nein
  •  

1 2 3 4 5 6 7 8 9 10 11 12 13 14 15 16 17 18 19 20 21 22 23 24 25 26 27 28 29 30 31 32 33 34 35 36 37 38 39 40 41 42 43 44 45 46 47 48 49 50 51 52 53 54 55 56 57 58 59 60 61 62 63 64 65 66 67 68 69 70 71 72 73 74 75 76 77 78 79 80 81 82 83 84 85 86 87 88 89 90 91 92 93 94 95 96 97 98 99 100 101 102 103 104 105 106 107 108 109 110 111 112 113 114 115 116 117 118 119 120 121 122 123 124 125 126 127 128 129 130 131 132 133 134 135 136 137 138 139 140 141 142 143 144 145 146 147 148 149 150 151 152 153 154 155 156 157 158