Ergebnis 1 bis 1 von 1

Thema: One Piece: Episode of Sabo [Jap-Dub][Ger-Sub][720p][HDTV] - OP-Tube

Dieser Thread wurde noch nicht bewertet. Bewerte ihn doch, wenn er dir gefällt!
  1. #1
    Kami-sama Avatar von galudo
    Registriert seit
    Mar 2015
    Beiträge
    1.371
    Punkte
    26.064
    Errungenschaften:
    TomodachisTagger ProfiHyperaktivSenpaiGang Leader

    One Piece: Episode of Sabo [Jap-Dub][Ger-Sub][720p][HDTV] - OP-Tube

    One Piece: Episode of Sabo
    3 Kyoudai no Kizuna Kiseki no Saikai to Uketsugareru Ishi
    Episode of Sabo: The Three Brothers' Bond
    The Miraculous Reunion and the Inherited Will



    Kurzbeschreibung
    In dem Special wird die Kindheit der drei Brüder Ruffy, Ace und Sabo, in der sie alle davon träumten Piraten zu werden, erneut unter die Lupe genommen. Außerdem soll es darum gehen, wie Sabo schließlich nach Dressrosa gekommen ist und das Treffen mit Ruffy wird hier aus seiner Sicht geschildert werden.
    Format: MP4
    Sprache: Japanisch
    Untertitel: Deutsch
    Genre: Fighting-Shounen, Abenteuer, Action, Drama
    Größe: 1,73 GB
    Dauer: ~ 106 Minuten
    Jahr: 2015
    Video: 720p
    Source: HDTV
    Subgroup / Releasegroup: OnePiece-Tube

    Hoster: Share-Online | Uploaded
    Passwort: siehe unten


    Datei-Info
    Spoiler
    Code:
    General
    Complete name                  : One Piece Episode of Sabo by OnePiece-Tube v2.mp4
    Format                         : MPEG-4
    Format profile                 : Base Media / Version 2
    Codec ID                       : mp42
    File size                      : 1.73 GiB
    Duration                       : 1h 46mn
    Overall bit rate mode          : Variable
    Overall bit rate               : 2 324 Kbps
    
    Video
    ID                             : 1
    Format                         : AVC
    Format/Info                    : Advanced Video Codec
    Format profile                 : [email protected]
    Format settings, CABAC         : Yes
    Format settings, ReFrames      : 5 frames
    Codec ID                       : avc1
    Codec ID/Info                  : Advanced Video Coding
    Duration                       : 1h 46mn
    Source duration                : 1h 46mn
    Bit rate                       : 2 251 Kbps
    Width                          : 1 280 pixels
    Height                         : 720 pixels
    Display aspect ratio           : 16:9
    Frame rate mode                : Variable
    Frame rate                     : 29.970 fps
    Minimum frame rate             : 29.970 fps
    Maximum frame rate             : 29.990 fps
    Color space                    : YUV
    Chroma subsampling             : 4:2:0
    Bit depth                      : 8 bits
    Scan type                      : Progressive
    Bits/(Pixel*Frame)             : 0.081
    Stream size                    : 1.60 GiB (93%)
    Source stream size             : 1.60 GiB (93%)
    Writing library                : x264 core 142 r2431 ac76440
    Encoding settings              : cabac=1 / ref=5 / deblock=1:1:0 / analyse=0x3:0x113 / me=umh / subme=8 / psy=1 / psy_rd=1.00:0.00 / mixed_ref=1 / me_range=16 / chroma_me=1 / trellis=1 / 8x8dct=1 / cqm=0 / deadzone=21,11 / fast_pskip=1 / chroma_qp_offset=-2 / threads=12 / lookahead_threads=2 / sliced_threads=0 / nr=0 / decimate=1 / interlaced=0 / bluray_compat=0 / constrained_intra=0 / bframes=3 / b_pyramid=2 / b_adapt=2 / b_bias=0 / direct=3 / weightb=1 / open_gop=0 / weightp=2 / keyint=288 / keyint_min=28 / scenecut=40 / intra_refresh=0 / rc_lookahead=50 / rc=2pass / mbtree=1 / bitrate=2251 / ratetol=1.0 / qcomp=0.60 / qpmin=10 / qpmax=51 / qpstep=4 / cplxblur=20.0 / qblur=0.5 / ip_ratio=1.40 / aq=1:0.80
    Language                       : Japan
    mdhd_Duration                  : 6398469
    
    Audio
    ID                             : 2
    Format                         : AAC
    Format/Info                    : Advanced Audio Codec
    Format profile                 : LC
    Codec ID                       : 40
    Duration                       : 1h 46mn
    Bit rate mode                  : Variable
    Bit rate                       : 165 Kbps
    Channel(s)                     : 2 channels
    Channel positions              : Front: L R
    Sampling rate                  : 48.0 KHz
    Compression mode               : Lossy
    Stream size                    : 126 MiB (7%)
    Language                       : Japan
    


    Special 01 / 01 online
    Special in Version 2



    || Download & Passwort ||
    Geschützter Bereich - Bedanke dich beim Poster, um den Bereich sehen zu können
    Hier erfährst Du wie Du Dich bedanken kannst oder werde jetzt Premium Mitglied ab einer Spende von 5€ und erhalte sofortigen Zugriff auf den Downloadbereich!

    Geändert von galudo (21. April 2016 um 18:11 Uhr)
    SUPPORT UND REUP ANFRAGEN NUR >> [Links sind nur für registrierte und aktivierte Nutzer sichtbar. Klicke hier um dich zu registrieren.] <<
    Bitte IMMER den Thread-Link mitschicken.

  2. 24 Benutzer sagen Danke:

    Animejunkie (16. April 2016),atomwesen (23. October 2015),Conopas (20. December 2015),Cony (11. December 2015),DetektivConanDE (20. April 2016),Freeman1599 (16. November 2015),Future (14. January 2016),Gebbi (23. October 2015),Hakku (17. January 2016),Hi im Shini (3. November 2015),Hisamaki (9. August 2016),Hixx (24. October 2015),Imperator45 (17. December 2015),Kradus (12. November 2015),midnighter (28. October 2015),MViperC (20. October 2015),prinzvegeta (30. October 2015),Rin58 (13. February 2016),ruffy1989 (23. October 2015),sudeku (27. December 2015),switcherous (1. November 2015),volker027 (30. December 2015),ZorroXD (11. December 2015),Zumay (16. February 2016)

Stichworte

Lesezeichen

Berechtigungen

  • Neue Themen erstellen: Nein
  • Themen beantworten: Nein
  • Anhänge hochladen: Nein
  • Beiträge bearbeiten: Nein
  •  

1 2 3 4 5 6 7 8 9 10 11 12 13 14 15 16 17 18 19 20 21 22 23 24 25 26 27 28 29 30 31 32 33 34 35 36 37 38 39 40 41 42 43 44 45 46 47 48 49 50 51 52 53 54 55 56 57 58 59 60 61 62 63 64 65 66 67 68 69 70 71 72 73 74 75 76 77 78 79 80 81 82 83 84 85 86 87 88 89 90 91 92 93 94 95 96 97 98 99 100 101 102 103 104 105 106 107 108 109 110 111 112 113 114 115 116 117 118 119 120 121 122 123 124 125 126 127 128 129 130 131 132 133 134 135 136 137 138 139 140 141 142 143 144 145 146 147 148 149 150 151 152 153 154 155 156 157 158