Ergebnis 1 bis 1 von 1

Thema: One Piece Heart of Gold [Jap-Dub][Ger-Sub][AAC][1080p][HDTV][x264] - OPTube

Dieser Thread wurde noch nicht bewertet. Bewerte ihn doch, wenn er dir gefällt!
  1. #1
    Erfahrener Otaku Avatar von DjRayleigh
    Registriert seit
    Jul 2015
    Beiträge
    195
    Punkte
    2.962
    Errungenschaften:
    1000 ErfahrungspunkteHyperaktivErste GruppeTomodachisSenpai

    One Piece Heart of Gold [Jap-Dub][Ger-Sub][AAC][1080p][HDTV][x264] - OPTube


    One Piece: Heart of Gold
    ワンピース ~ハートオブ ゴールド~






    Kurzbeschreibung:
    Zitat Zitat von AniSearch.com
    Alles dreht sich um einen mysteriösen Schatz namens Pure Gold, nach dem es selbst Gild Tesoro verlangt. Die Strohhutbande trifft auf das Mädchen Orga, welches den Standort des Schatzes kennt, und zieht zusammen mit ihm zur legendären Insel Alchemy los, um den Schatz zu bergen


    Spieldauer: 120min
    Genre: Fighting-Shounen
    Nebengenres: Abenteuer, Action, Drama, Fantasy, Fighting-Shounen, Komödie
    Jahr: 2016
    Sprache: Japanisch
    Untertitel: Deutsch
    Größe pro Folge: ~773 MiB
    Episodenanzahl: 1/1
    Format: MP4
    Auflösung: 1080p (16:9)
    Videocodec: x264 (AVC)
    Audiocodec: AAC
    Releasegruppe: OPTube
    Hoster: Share-Online, Uploaded


    MediaInfo
    Code:
    
    Format                                   : MPEG-4
    Format profile                           : Base Media
    Codec ID                                 : isom
    File size                                : 773 MiB
    Duration                                 : 34mn 44s
    Overall bit rate mode                    : Variable
    Overall bit rate                         : 3 110 Kbps
    Encoded date                             : UTC 2016-07-22 07:53:54
    Tagged date                              : UTC 2016-07-22 07:53:54
    
    Video
    ID                                       : 1
    Format                                   : AVC
    Format/Info                              : Advanced Video Codec
    Format profile                           : [email protected]
    Format settings, CABAC                   : Yes
    Format settings, ReFrames                : 5 frames
    Codec ID                                 : avc1
    Codec ID/Info                            : Advanced Video Coding
    Duration                                 : 34mn 44s
    Source duration                          : 34mn 44s
    Bit rate                                 : 2 948 Kbps
    Width                                    : 1 920 pixels
    Height                                   : 1 080 pixels
    Display aspect ratio                     : 16:9
    Frame rate mode                          : Constant
    Frame rate                               : 29.970 fps
    Color space                              : YUV
    Chroma subsampling                       : 4:2:0
    Bit depth                                : 8 bits
    Scan type                                : Progressive
    Bits/(Pixel*Frame)                       : 0.047
    Stream size                              : 733 MiB (95%)
    Source stream size                       : 733 MiB (95%)
    Language                                 : English
    Encoded date                             : UTC 2016-07-22 07:53:54
    Tagged date                              : UTC 2016-07-22 07:53:54
    mdhd_Duration                            : 2084649
    
    Audio
    ID                                       : 2
    Format                                   : AAC
    Format/Info                              : Advanced Audio Codec
    Format profile                           : LC
    Codec ID                                 : 40
    Duration                                 : 34mn 44s
    Duration_FirstFrame                      : -19ms
    Bit rate mode                            : Variable
    Bit rate                                 : 155 Kbps
    Channel(s)                               : 2 channels
    Channel positions                        : Front: L R
    Sampling rate                            : 44.1 KHz
    Compression mode                         : Lossy
    Stream size                              : 38.5 MiB (5%)
    Language                                 : English
    Encoded date                             : UTC 2016-07-22 07:53:54
    Tagged date                              : UTC 2016-07-22 07:53:54
    mdhd_Duration                            : 2084692
    
    




    Geschützter Bereich - Bedanke dich beim Poster, um den Bereich sehen zu können
    Hier erfährst Du wie Du Dich bedanken kannst oder werde jetzt Premium Mitglied ab einer Spende von 5€ und erhalte sofortigen Zugriff auf den Downloadbereich!

    [Links sind nur für registrierte und aktivierte Nutzer sichtbar. Klicke hier um dich zu registrieren.]

    [Links sind nur für registrierte und aktivierte Nutzer sichtbar. Klicke hier um dich zu registrieren.]
    Support über PN
    =
    AKTIV

  2. 34 Benutzer sagen Danke:

    Berserk27 (15. October 2016),Bloodymight (1. November 2016),Ch1quita (4. August 2016),chr1570ph3r (25. October 2016),DarkChaos (24. July 2016),Djangorain (2. August 2016),Dylan (25. July 2016),Freeman1599 (25. October 2016),Hardman (25. August 2016),herrwefer (24. July 2016),Hiruja (10. October 2016),Hisamaki (4. August 2016),IN4T0R (24. July 2016),johnny10 (26. July 2016),Kaldo (16. October 2016),Kodama1989 (30. July 2016),Lang (26. November 2016),manuel4193 (25. July 2016),MViperC (25. July 2016),NLHTeddyNLH (2. October 2016),Over (19. August 2016),Praxas (14. September 2016),Pure (23. August 2016),Shadowa (24. November 2016),Shinigami1337 (11. November 2016),streicherishere (13. September 2016),TeddyBöör (6. September 2016),thereverend (24. July 2016),V1rU5 (3. October 2016),Virgel (14. November 2016),Wölfchen (24. July 2016),xtsiux123 (29. October 2016),zimbo201174 (1. September 2016),zockerfreund (13. October 2016)

Lesezeichen

Berechtigungen

  • Neue Themen erstellen: Nein
  • Themen beantworten: Nein
  • Anhänge hochladen: Nein
  • Beiträge bearbeiten: Nein
  •  

1 2 3 4 5 6 7 8 9 10 11 12 13 14 15 16 17 18 19 20 21 22 23 24 25 26 27 28 29 30 31 32 33 34 35 36 37 38 39 40 41 42 43 44 45 46 47 48 49 50 51 52 53 54 55 56 57 58 59 60 61 62 63 64 65 66 67 68 69 70 71 72 73 74 75 76 77 78 79 80 81 82 83 84 85 86 87 88 89 90 91 92 93 94 95 96 97 98 99 100 101 102 103 104 105 106 107 108 109 110 111 112 113 114 115 116 117 118 119 120 121 122 123 124 125 126 127 128 129 130 131 132 133 134 135 136 137 138 139 140 141 142 143 144 145 146 147 148 149 150 151 152 153 154 155 156 157 158