Ergebnis 1 bis 1 von 1

Thema: One Punch Man: Road to Hero [Jap-Dub][Ger-Sub][576p][DVD] - AnimeSubways

Dieser Thread wurde noch nicht bewertet. Bewerte ihn doch, wenn er dir gefällt!
  1. #1
    Kami-sama Avatar von galudo
    Registriert seit
    Mar 2015
    Beiträge
    1.370
    Punkte
    25.935
    Errungenschaften:
    TomodachisTagger ProfiHyperaktivSenpaiGang Leader

    One Punch Man: Road to Hero [Jap-Dub][Ger-Sub][576p][DVD] - AnimeSubways

    One-Punch Man: Road to Hero
    ワンパンマン ロード・トゥ・ヒーロー
    One-Punch Man OAD



    Kurzbeschreibung
    Jeder fängt mal klein an – so auch der schier unbezwingbare Saitama!
    Diese alternative Story spielt zu jener Zeit, als er noch seine Haare hatte und für sein Kostüm ein Trainingsanzug herhalten muss.
    Saitama setzt hierbei seine tägliche Routine fort und zieht zahlreiche Schurken in der verlassenen Gegend von Z-City zur Rechenschaft.
    Da des öfteren sein Trainingsanzug in Mitleidenschaft gezogen wird, lässt er diesen bei einem Schneider flicken und bekommt dabei mit,
    wie der Ladenbesitzer von einer ansässigen Gang, um seine Ladenpapiere erpresst wird.
    Der aufstrebende Held, der das Ganze nur als Hobby macht, versucht die Situation für den Erpressten zu lösen.
    Format: MP4
    Sprache: Japanisch
    Untertitel: Deutsch
    Genre: Action, Comedy, Sci-Fi, Supernatural
    Größe : 365 MB
    Dauer: ~ 24 Minuten
    Jahr: 2015
    Video: 576p
    Source: DVD
    Subgroup / Releasegroup: AnimeSubways

    Hoster: Share-Online | Uploaded
    Passwort: siehe unten


    Datei-Info
    MediaInfo
    720p
    Code:
    [B]General
    Complete name                  : One Punch Man -  Road to Hero.mp4
    Format                         : MPEG-4
    Format profile                 : Base Media
    Codec ID                       : isom
    File size                      : 365 MiB
    Duration                       : 24mn 0s
    Overall bit rate mode          : Variable
    Overall bit rate               : 2 127 Kbps
    Writing application            : Lavf56.40.101
    
    Video
    ID                             : 1
    Format                         : AVC
    Format/Info                    : Advanced Video Codec
    Format profile                 : [email protected]
    Format settings, CABAC         : Yes
    Format settings, ReFrames      : 5 frames
    Codec ID                       : avc1
    Codec ID/Info                  : Advanced Video Coding
    Duration                       : 23mn 59s
    Bit rate                       : 2 000 Kbps
    Width                          : 1 024 pixels
    Height                         : 576 pixels
    Display aspect ratio           : 16:9
    Frame rate mode                : Constant
    Frame rate                     : 23.976 fps
    Color space                    : YUV
    Chroma subsampling             : 4:2:0
    Bit depth                      : 8 bits
    Scan type                      : Progressive
    Bits/(Pixel*Frame)             : 0.141
    Stream size                    : 342 MiB (94%)
    Writing library                : x264 core 148 r2638 7599210
    Encoding settings              : cabac=1 / ref=5 / deblock=1:0:0 / analyse=0x3:0x113 / me=umh / subme=8 / psy=1 / psy_rd=1.00:0.00 / mixed_ref=1 / me_range=8 / chroma_me=1 / trellis=1 / 8x8dct=1 / cqm=0 / deadzone=21,11 / fast_pskip=1 / chroma_qp_offset=-2 / threads=4 / lookahead_threads=1 / sliced_threads=0 / nr=0 / decimate=1 / interlaced=0 / bluray_compat=0 / constrained_intra=0 / bframes=3 / b_pyramid=2 / b_adapt=2 / b_bias=0 / direct=3 / weightb=1 / open_gop=0 / weightp=2 / keyint=240 / keyint_min=23 / scenecut=40 / intra_refresh=0 / rc_lookahead=50 / rc=2pass / mbtree=1 / bitrate=2000 / ratetol=1.0 / qcomp=0.60 / qpmin=0 / qpmax=69 / qpstep=4 / cplxblur=20.0 / qblur=0.5 / vbv_maxrate=3000 / vbv_bufsize=8000 / nal_hrd=none / filler=0 / ip_ratio=1.40 / aq=1:1.00
    
    Audio
    ID                             : 2
    Format                         : AAC
    Format/Info                    : Advanced Audio Codec
    Format profile                 : LC
    Codec ID                       : 40
    Duration                       : 24mn 0s
    Duration_LastFrame             : -9ms
    Bit rate mode                  : Variable
    Bit rate                       : 128 Kbps
    Maximum bit rate               : 3 000 Kbps
    Channel(s)                     : 2 channels
    Channel positions              : Front: L R
    Sampling rate                  : 44.1 KHz
    Compression mode               : Lossy
    Stream size                    : 22.0 MiB (6%)


    OVA 01 / 01 online

    || Download & Passwort ||


    Geschützter Bereich - Bedanke dich beim Poster, um den Bereich sehen zu können
    Hier erfährst Du wie Du Dich bedanken kannst oder werde jetzt Premium Mitglied ab einer Spende von 5€ und erhalte sofortigen Zugriff auf den Downloadbereich!

    Weiteres von One Punch Man:
    [Links sind nur für registrierte und aktivierte Nutzer sichtbar. Klicke hier um dich zu registrieren.]

    Geändert von galudo (12. October 2016 um 19:29 Uhr)
    SUPPORT UND REUP ANFRAGEN NUR >> [Links sind nur für registrierte und aktivierte Nutzer sichtbar. Klicke hier um dich zu registrieren.] <<
    Bitte IMMER den Thread-Link mitschicken.

  2. 97 Benutzer sagen Danke:

    Anzeigen

    Aikanary (1. January 2016),Aman87 (16. April 2016),Besen 48 (5. January 2016),Blocker (31. December 2015),Bloodyair (1. January 2016),bloodyfloh (31. December 2015),Boehmi (17. January 2016),bra1nbug94 (31. December 2015),Buze (1. January 2016),C3M-O- (6. January 2016),chewbacka (4. February 2016),chopper23 (31. December 2015),Cú Chulainn (31. December 2015),Daisuke (27. April 2016),DarkTerminator (12. April 2016),DarthToast (31. December 2015),Dreieckhard (1. January 2016),drparnassus (1. January 2016),eckschrank (22. October 2016),eraz (2. January 2016),Erna (25. March 2016),eston (24. January 2016),exterminus (31. December 2015),Ezekiel2517 (15. February 2016),FairySlay (3. January 2016),farmerjoe (1. January 2016),Feed Me x33 (13. January 2016),foiderbua (31. December 2015),Frag0042 (31. December 2015),Geisterhaendler (1. January 2016),Goki.Grokus (2. January 2016),Gourmet-Cannibal (3. January 2016),gunnar1 (21. February 2016),GuntherG (31. December 2015),hadis1000 (6. April 2016),heikobaer (1. January 2016),herrwefer (13. May 2016),Holyy (2. January 2016),Ignasum (1. January 2016),ikkyyy (24. November 2016),InSaNe.CodeZ (1. January 2016),IshiFuroito (1. February 2016),Jack (4. January 2016),Juckz (1. January 2016),Kaldo (1. January 2016),Katsura (13. January 2016),knuffel (20. June 2016),KuraikoSayo (26. October 2016),LawMugen (7. January 2016),LawrenceKraft (2. January 2016),leaf-chan (28. February 2016),Loki92 (2. January 2016),Magicmanx (26. January 2016),Matsumoto (3. January 2016),Max13493 (10. January 2016),Metaridley (16. March 2016),midnighter (2. January 2016),MJMax (1. January 2016),Moody (25. March 2016),Mr.Shit (1. January 2016),Nanatzusaya (1. January 2016),Nandemonai (6. February 2016),nemo (7. January 2016),neocx (28. March 2016),noizmaker (1. January 2016),Okarin (5. January 2016),prinzvegeta (4. January 2016),ProHitman47 (22. January 2016),realmadridcf (31. December 2015),Rekke (31. December 2015),Rena (6. January 2016),ringmast (18. January 2016),Ronae (31. December 2015),Roxas-chan (21. January 2016),Roxas8139 (8. January 2016),SciTeC (8. March 2016),Scruffy (22. May 2016),Se.phi.roth (5. June 2016),sebmori (1. January 2016),Sharan955 (1. January 2016),Shugyosha (31. December 2015),Shuuji (11. January 2016),Skully_88 (1. April 2016),Smitecrawler (25. April 2016),Sora (6. June 2016),Sou-chan (29. January 2016),ssj3shad (1. January 2016),Suigetsu (31. December 2015),supelco (20. February 2016),tompace (16. January 2016),ultrasn0w (11. January 2016),Valetinese (1. January 2016),vangel (1. January 2016),Virgel (3. March 2016),wasweisich (4. January 2016),Whitechapel93 (5. July 2016),xhellsingx (6. April 2016)

Stichworte

Lesezeichen

Berechtigungen

  • Neue Themen erstellen: Nein
  • Themen beantworten: Nein
  • Anhänge hochladen: Nein
  • Beiträge bearbeiten: Nein
  •  

1 2 3 4 5 6 7 8 9 10 11 12 13 14 15 16 17 18 19 20 21 22 23 24 25 26 27 28 29 30 31 32 33 34 35 36 37 38 39 40 41 42 43 44 45 46 47 48 49 50 51 52 53 54 55 56 57 58 59 60 61 62 63 64 65 66 67 68 69 70 71 72 73 74 75 76 77 78 79 80 81 82 83 84 85 86 87 88 89 90 91 92 93 94 95 96 97 98 99 100 101 102 103 104 105 106 107 108 109 110 111 112 113 114 115 116 117 118 119 120 121 122 123 124 125 126 127 128 129 130 131 132 133 134 135 136 137 138 139 140 141 142 143 144 145 146 147 148 149 150 151 152 153 154 155 156 157 158