Ergebnis 1 bis 1 von 1

Thema: Onii-sama e... [Jap-Dub][Ger-Sub][768p][DVDRip]-MGS

Dieser Thread wurde noch nicht bewertet. Bewerte ihn doch, wenn er dir gefällt!
  1. #1
    United we Stand Avatar von 00Ryuji00
    Registriert seit
    Oct 2012
    Beiträge
    3.902
    Punkte
    100.092
    Errungenschaften:
    TomodachisGang LeaderHikikomoriTagger Amateur50000 Erfahrungspunkte

    Onii-sama e... [Jap-Dub][Ger-Sub][768p][DVDRip]-MGS


    Onii-sama e...
    おにいさまへ...
    Dear Brother
    Brother, Dear Brother
    Oniisama E
    To My Brother...






    Kurzbeschreibung:
    Zitat Zitat von AniSearch.com
    Nanako beginnt das Gymnasium Seiran zu besuchen und wird in die Sorority gewählt, eine angesehene Schülerorganisation, deren Mitglieder aus gutem Haus sein müssen, intelligent, schön, edel und vor allem den älteren Schülerinnen gefallen. Viele ihrer Mitschülerinnen sind neidisch auf sie, vor allem, weil Lady Miya, die Präsidentin, sie bevorzugt. Sie schikanieren sie, wo es nur geht. Der Grund, warum Lady Miya sich so für Nanako einsetzt, ist, dass sie sie von ihrem Bruder, Takehiko Henmi, der eigentlich gar nicht ihr Bruder ist und dem Nanako nur Briefe schreibt, wegbringen möchte.


    Spieldauer: 26min
    Genre: Drama
    Nebengenres: Drama, Psychodrama, Romanze, Weiblich, Yuri
    Jahr: 1991
    Sprache: Japanisch
    Untertitel: Deutsch
    Größe pro Folge: ~246 MiB
    Episodenanzahl: 39/39
    Format: MP4
    Auflösung: 768p (4:3)
    Videocodec: x264 (AVC)
    Audiocodec: AAC
    Releasegruppe: MGS
    Hoster: Share-Online, Uploaded


    MediaInfo
    Code:
    
    Format                                   : MPEG-4
    Format profile                           : Base Media
    Codec ID                                 : isom
    File size                                : 246 MiB
    Duration                                 : 25mn 31s
    Overall bit rate mode                    : Variable
    Overall bit rate                         : 1 347 Kbps
    Encoded date                             : UTC 2010-10-03 20:14:42
    Tagged date                              : UTC 2010-10-03 20:14:42
    
    Video
    ID                                       : 1
    Format                                   : AVC
    Format/Info                              : Advanced Video Codec
    Format profile                           : [email protected]
    Format settings, CABAC                   : Yes
    Format settings, ReFrames                : 8 frames
    Codec ID                                 : avc1
    Codec ID/Info                            : Advanced Video Coding
    Duration                                 : 25mn 31s
    Bit rate                                 : 1 216 Kbps
    Maximum bit rate                         : 4 395 Kbps
    Width                                    : 1 024 pixels
    Height                                   : 768 pixels
    Display aspect ratio                     : 4:3
    Frame rate mode                          : Constant
    Frame rate                               : 23.976 fps
    Color space                              : YUV
    Chroma subsampling                       : 4:2:0
    Bit depth                                : 8 bits
    Scan type                                : Progressive
    Bits/(Pixel*Frame)                       : 0.064
    Stream size                              : 222 MiB (90%)
    Writing library                          : x264 core 68 r1183M f21daff
    Encoding settings                        : cabac=1 / ref=8 / deblock=1:1:1 / analyse=0x3:0x133 / me=umh / subme=7 / psy_rd=0.6:0.0 / mixed_ref=1 / me_range=16 / chroma_me=1 / trellis=2 / 8x8dct=1 / cqm=0 / deadzone=21,11 / chroma_qp_offset=-2 / threads=6 / nr=0 / decimate=1 / mbaff=0 / bframes=16 / b_pyramid=1 / b_adapt=1 / b_bias=0 / direct=3 / wpredb=0 / keyint=250 / keyint_min=25 / scenecut=40 / rc=2pass / bitrate=1216 / ratetol=1.0 / qcomp=0.60 / qpmin=10 / qpmax=51 / qpstep=4 / cplxblur=20.0 / qblur=0.5 / ip_ratio=1.40 / pb_ratio=1.30 / aq=0
    Encoded date                             : UTC 2010-10-03 19:31:01
    Tagged date                              : UTC 2010-10-03 20:14:44
    
    Audio
    ID                                       : 2
    Format                                   : AAC
    Format/Info                              : Advanced Audio Codec
    Format profile                           : HE-AAC / LC
    Codec ID                                 : 40
    Duration                                 : 25mn 31s
    Bit rate mode                            : Variable
    Bit rate                                 : 128 Kbps
    Maximum bit rate                         : 147 Kbps
    Channel(s)                               : 2 channels
    Channel positions                        : Front: L R
    Sampling rate                            : 44.1 KHz / 22.05 KHz
    Compression mode                         : Lossy
    Stream size                              : 23.3 MiB (9%)
    Encoded date                             : UTC 2010-10-03 20:14:43
    Tagged date                              : UTC 2010-10-03 20:14:44
    
    





    Geschützter Bereich - Bedanke dich beim Poster, um den Bereich sehen zu können
    Hier erfährst Du wie Du Dich bedanken kannst oder werde jetzt Premium Mitglied ab einer Spende von 5€ und erhalte sofortigen Zugriff auf den Downloadbereich!



    [Links sind nur für registrierte und aktivierte Nutzer sichtbar. Klicke hier um dich zu registrieren.]
    Geändert von so1k (12. October 2016 um 20:31 Uhr)
    !!!Alle Anliegen bezüglich Uploads werden nur mit direktem Threadlink zum Angebot bearbeitet!!!

    Re-Uploadanfragen nur per PN - Ihr könnt mir auch Listen schicken

    Re-Uploads folgen nach Anfrage meist am Wochenende

    [Links sind nur für registrierte und aktivierte Nutzer sichtbar. Klicke hier um dich zu registrieren.] | [Links sind nur für registrierte und aktivierte Nutzer sichtbar. Klicke hier um dich zu registrieren.] | >[Links sind nur für registrierte und aktivierte Nutzer sichtbar. Klicke hier um dich zu registrieren.]<
    [Links sind nur für registrierte und aktivierte Nutzer sichtbar. Klicke hier um dich zu registrieren.]

  2. 2 Benutzer sagen Danke:

    midnighter (17. January 2016),noizmaker (2. January 2016)

Lesezeichen

Berechtigungen

  • Neue Themen erstellen: Nein
  • Themen beantworten: Nein
  • Anhänge hochladen: Nein
  • Beiträge bearbeiten: Nein
  •  

1 2 3 4 5 6 7 8 9 10 11 12 13 14 15 16 17 18 19 20 21 22 23 24 25 26 27 28 29 30 31 32 33 34 35 36 37 38 39 40 41 42 43 44 45 46 47 48 49 50 51 52 53 54 55 56 57 58 59 60 61 62 63 64 65 66 67 68 69 70 71 72 73 74 75 76 77 78 79 80 81 82 83 84 85 86 87 88 89 90 91 92 93 94 95 96 97 98 99 100 101 102 103 104 105 106 107 108 109 110 111 112 113 114 115 116 117 118 119 120 121 122 123 124 125 126 127 128 129 130 131 132 133 134 135 136 137 138 139 140 141 142 143 144 145 146 147 148 149 150 151 152 153 154 155 156 157 158