Ergebnis 1 bis 1 von 1

Thema: Ookiku Furikabutte [Eingestellt][JapDub][GerSub][8bit/10bit][DVDRip]

Dieser Thread wurde noch nicht bewertet. Bewerte ihn doch, wenn er dir gefällt!
  1. #1
    Kami-sama Avatar von galudo
    Registriert seit
    Mar 2015
    Beiträge
    1.369
    Punkte
    25.903
    Errungenschaften:
    TomodachisTagger ProfiHyperaktivSenpaiGang Leader

    Ookiku Furikabutte [Eingestellt][JapDub][GerSub][8bit/10bit][DVDRip]

    SUBGRUPPE IST INAKTIV = KEINE WEITEREN FOLGEN = ANGEBOT EINGESTELLT!
    Ookiku Furikabutte
    Big Windup!
    Ohkiku Furikabutte
    Oofuri



    Kurzbeschreibung
    Ren Mihashi spielte als Pitcher im Baseballteam seiner Schule. Böse Zungen behaupten aber, er habe den Platz im Team nur bekommen, weil sein Großvater der Direktor der Lehranstalt war.
    Ren selbst glaubt das auch und so kommt er völlig ohne Selbstbewusstsein zum ersten Treffen des Baseballclubs der Highschool, die er aber jetzt im japanischen Saitama besuchen wird. So macht er sich keine Hoffnungen, hier als Pitcher angenommen zu werden. Doch er ist der einzige Anwesende, der diese Position bereits gespielt hat und die Managerin des Teams glaubt genauso an ihn, wie es der Catcher der Mannschaft tut.
    Format: MKV bei 10-Bit Version, MP4 bei 8-Bit Version
    Sprache: Japanisch
    Untertitel: Deutsch
    Genre: Comedy, Sport
    Größe bei 10-Bit: ~ 225 MB pro Folge | Gesamtgröße: 706 MB
    Größe bei 8-Bit: ~ 185 MB pro Folge | Gesamtgröße: 582 MB
    Dauer: ~ 24 Minuten
    Jahr: 2007
    Video: 480p
    Source: DVDRip
    Subgroup / Releasegroup: Miyu-Subs

    Hoster: Share-Online | Uploaded
    Passwort: siehe unten


    Datei-Info
    Spoiler
    10-Bit
    Code:
    General
    Format                         : Matroska
    Format version                 : Version 4 / Version 2
    File size                      : 227 MiB
    Duration                       : 24mn 9s
    Overall bit rate               : 1 316 Kbps
    Encoded date                   : UTC 2014-04-04 11:42:22
    Writing application            : mkvmerge v6.8.0 ('Theme for Great Cities') 64bit built on Mar  2 2014 21:34:26
    Writing library                : libebml v1.3.0 + libmatroska v1.4.1
    Attachements                   : TektonPro-BoldObl_1.otf / 75749.TTF / ASSEENONTV_0.ttf / BenguiatGothicEF-Medium_0.ttf / FGCherylHand_0.ttf / handageaoe_0.ttf / handsean_0.ttf / Men Nefer Black_0.ttf / respub_0.ttf / RomicEF-Light_0.ttf / TektonPro-Bold.otf
    
    Video
    ID                             : 1
    Format                         : AVC
    Format/Info                    : Advanced Video Codec
    Format profile                 : High [email protected]
    Format settings, CABAC         : Yes
    Format settings, ReFrames      : 16 frames
    Codec ID                       : V_MPEG4/ISO/AVC
    Duration                       : 24mn 9s
    Bit rate                       : 1 098 Kbps
    Width                          : 848 pixels
    Height                         : 480 pixels
    Display aspect ratio           : 16:9
    Frame rate mode                : Constant
    Frame rate                     : 23.976 fps
    Color space                    : YUV
    Chroma subsampling             : 4:2:0
    Bit depth                      : 10 bits
    Scan type                      : Progressive
    Bits/(Pixel*Frame)             : 0.112
    Stream size                    : 190 MiB (83%)
    Title                          : DVD 10bit
    Writing library                : x264 core 142 r2389+41 02cb608 tMod [[email protected] X86]
    Encoding settings              : cabac=1 / ref=16 / deblock=1:1:-1 / analyse=0x3:0x133 / me=umh / subme=11 / psy=1 / fade_compensate=0.00 / psy_rd=0.50:0.00 / mixed_ref=1 / me_range=32 / chroma_me=1 / trellis=2 / 8x8dct=1 / cqm=0 / deadzone=21,11 / fast_pskip=0 / chroma_qp_offset=-2 / threads=9 / lookahead_threads=2 / sliced_threads=0 / nr=0 / decimate=1 / interlaced=0 / bluray_compat=0 / constrained_intra=0 / fgo=0 / bframes=16 / b_pyramid=2 / b_adapt=2 / b_bias=0 / direct=3 / weightb=1 / open_gop=0 / weightp=2 / keyint=250 / keyint_min=23 / scenecut=40 / intra_refresh=0 / rc_lookahead=60 / rc=crf / mbtree=1 / crf=16.0000 / qcomp=0.70 / qpmin=0:0:0 / qpmax=81:81:81 / qpstep=4 / ip_ratio=1.40 / aq=3:0.80 / aq-sensitivity=10.00 / aq-factor=1.00:1.00:1.00 / aq2=0 / aq3=0
    Language                       : Japanese
    Default                        : Yes
    Forced                         : No
    
    Audio
    ID                             : 2
    Format                         : AC-3
    Format/Info                    : Audio Coding 3
    Mode extension                 : CM (complete main)
    Format settings, Endianness    : Big
    Codec ID                       : A_AC3
    Duration                       : 24mn 9s
    Bit rate mode                  : Constant
    Bit rate                       : 192 Kbps
    Channel(s)                     : 2 channels
    Channel positions              : Front: L R
    Sampling rate                  : 48.0 KHz
    Bit depth                      : 16 bits
    Compression mode               : Lossy
    Delay relative to video        : 24ms
    Stream size                    : 33.2 MiB (15%)
    Title                          : AC3 Stereo
    Language                       : Japanese
    Default                        : Yes
    Forced                         : No
    
    Text
    ID                             : 3
    Format                         : ASS
    Codec ID                       : S_TEXT/ASS
    Codec ID/Info                  : Advanced Sub Station Alpha
    Compression mode               : Lossless
    Title                          : Ookiku Furikabutte 01
    Language                       : German
    Default                        : Yes
    Forced                         : No
    
    Menu
    00:00:00.000                   : :Intro
    00:01:17.000                   : :OP
    00:02:46.800                   : :Teil A
    00:12:35.800                   : :Teil B
    00:22:09.800                   : :ED
    00:23:39.900                   : :Vorschau

    8-Bit
    Code:
    General
    Format                         : MPEG-4
    Format profile                 : Base Media
    Codec ID                       : isom
    File size                      : 188 MiB
    Duration                       : 24mn 9s
    Overall bit rate               : 1 087 Kbps
    
    Video
    ID                             : 1
    Format                         : AVC
    Format/Info                    : Advanced Video Codec
    Format profile                 : [email protected]
    Format settings, CABAC         : Yes
    Format settings, ReFrames      : 16 frames
    Codec ID                       : avc1
    Codec ID/Info                  : Advanced Video Coding
    Duration                       : 24mn 9s
    Bit rate                       : 893 Kbps
    Maximum bit rate               : 3 451 Kbps
    Width                          : 848 pixels
    Height                         : 480 pixels
    Display aspect ratio           : 16:9
    Frame rate mode                : Constant
    Frame rate                     : 23.976 fps
    Color space                    : YUV
    Chroma subsampling             : 4:2:0
    Bit depth                      : 8 bits
    Scan type                      : Progressive
    Bits/(Pixel*Frame)             : 0.092
    Stream size                    : 154 MiB (82%)
    Title                          : DVD 8bit
    Writing library                : x264 core 142 r2389+41 02cb608 tMod [[email protected] X86]
    Encoding settings              : cabac=1 / ref=16 / deblock=1:1:-1 / analyse=0x3:0x133 / me=umh / subme=11 / psy=1 / fade_compensate=0.00 / psy_rd=0.50:0.00 / mixed_ref=1 / me_range=32 / chroma_me=1 / trellis=2 / 8x8dct=1 / cqm=0 / deadzone=21,11 / fast_pskip=0 / chroma_qp_offset=-2 / threads=9 / lookahead_threads=2 / sliced_threads=0 / nr=0 / decimate=1 / interlaced=0 / bluray_compat=0 / constrained_intra=0 / fgo=0 / bframes=16 / b_pyramid=2 / b_adapt=2 / b_bias=0 / direct=3 / weightb=1 / open_gop=0 / weightp=2 / keyint=250 / keyint_min=23 / scenecut=40 / intra_refresh=0 / rc_lookahead=60 / rc=crf / mbtree=1 / crf=17.0000 / qcomp=0.70 / qpmin=0:0:0 / qpmax=69:69:69 / qpstep=4 / ip_ratio=1.40 / aq=3:0.80 / aq-sensitivity=10.00 / aq-factor=1.00:1.00:1.00 / aq2=0 / aq3=0
    
    Audio
    ID                             : 2
    Format                         : AC-3
    Format/Info                    : Audio Coding 3
    Mode extension                 : CM (complete main)
    Format settings, Endianness    : Big
    Codec ID                       : ac-3
    Duration                       : 24mn 9s
    Bit rate mode                  : Constant
    Bit rate                       : 192 Kbps
    Channel(s)                     : 2 channels
    Channel positions              : Front: L R
    Sampling rate                  : 48.0 KHz
    Bit depth                      : 16 bits
    Compression mode               : Lossy
    Stream size                    : 33.2 MiB (18%)
    Title                          : AC3 Stereo
    Language                       : Japanese


    Folgen 03 / 25 online
    Folgen einzeln ladbar



    || Download & Passwort ||
    Geschützter Bereich - Bedanke dich beim Poster, um den Bereich sehen zu können
    Hier erfährst Du wie Du Dich bedanken kannst oder werde jetzt Premium Mitglied ab einer Spende von 5€ und erhalte sofortigen Zugriff auf den Downloadbereich!
    Geändert von galudo (30. April 2016 um 19:09 Uhr) Grund: Sub Eingestellt
    SUPPORT UND REUP ANFRAGEN NUR >> [Links sind nur für registrierte und aktivierte Nutzer sichtbar. Klicke hier um dich zu registrieren.] <<
    Bitte IMMER den Thread-Link mitschicken.

  2. 7 Benutzer sagen Danke:

    BlackOut84 (13. September 2015),Bloodywaffe (27. January 2016),Ley0304 (10. August 2015),Melijal (30. June 2015),michael187 (13. September 2015),midnighter (15. June 2015),scarven (3. August 2015)

Stichworte

Lesezeichen

Berechtigungen

  • Neue Themen erstellen: Nein
  • Themen beantworten: Nein
  • Anhänge hochladen: Nein
  • Beiträge bearbeiten: Nein
  •  

1 2 3 4 5 6 7 8 9 10 11 12 13 14 15 16 17 18 19 20 21 22 23 24 25 26 27 28 29 30 31 32 33 34 35 36 37 38 39 40 41 42 43 44 45 46 47 48 49 50 51 52 53 54 55 56 57 58 59 60 61 62 63 64 65 66 67 68 69 70 71 72 73 74 75 76 77 78 79 80 81 82 83 84 85 86 87 88 89 90 91 92 93 94 95 96 97 98 99 100 101 102 103 104 105 106 107 108 109 110 111 112 113 114 115 116 117 118 119 120 121 122 123 124 125 126 127 128 129 130 131 132 133 134 135 136 137 138 139 140 141 142 143 144 145 146 147 148 149 150 151 152 153 154 155 156 157 158