Ergebnis 1 bis 1 von 1

Thema: Ore no Imouto ga Konna ni Kawaii Wake ga Nai (S1) [Jap-Dub][Ger-Sub][720p/1080p-10Bit][BluRay]-Morai

Dieser Thread wurde noch nicht bewertet. Bewerte ihn doch, wenn er dir gefällt!
  1. #1
    United we Stand Avatar von 00Ryuji00
    Registriert seit
    Oct 2012
    Beiträge
    3.902
    Punkte
    99.823
    Errungenschaften:
    TomodachisGang LeaderHikikomoriTagger Amateur50000 Erfahrungspunkte

    Ore no Imouto ga Konna ni Kawaii Wake ga Nai (S1) [Jap-Dub][Ger-Sub][720p/1080p-10Bit][BluRay]-Morai


    Ore no Imouto ga Konna ni Kawaii Wake ga Nai
    俺の妹がこんなに可愛いわけがない
    My Little Sister Can't Be This Cute
    Oreimo
    Nie und nimmer könnte ich meine Schwester lieben






    Kurzbeschreibung:
    Zitat Zitat von AniSearch.com
    Kyousuke Kousakas jüngere Schwester Kirino ist hübsch, beliebt und arbeitet sogar als Model, überragt ihren Bruder also in sozialen Belangen deutlich. Auch er kennt nur diese Seite von ihr und staunt deshalb nicht schlecht, als er eines Tages durch Zufall herausfindet, dass sie insgeheim ein Eroge-Otaku ist. Entgegen Kirinos anfänglicher Sorge sieht er auch keinen Grund ihr anzügliches Hobby zu verraten, weshalb er für sie schnell Gesprächspartner und Lakai wird, während sie weiterhin ihrer Obsession nachgeht.


    Spieldauer: 24min
    Genre: Komödie
    Nebengenres: Alltagsleben, Drama, Komödie, Männlich, Romanze
    Jahr: 2010
    Sprache: Japanisch
    Untertitel: Deutsch
    Größe pro Folge: ~267 MiB ~415 MiB
    Episodenanzahl: 12/12 + 4/4
    Format: MP4
    Auflösung: 720p (16:9), 1080p (16:9)
    Videocodec: x264 (AVC)
    Audiocodec: AAC
    Releasegruppe: Morai-Subs
    Hoster: Share-Online, Uploaded


    MediaInfo
    720p
    Code:
    
    Format                                   : MPEG-4
    Format profile                           : Base Media
    Codec ID                                 : isom
    File size                                : 267 MiB
    Duration                                 : 27mn 13s
    Overall bit rate mode                    : Variable
    Overall bit rate                         : 1 369 Kbps
    Encoded date                             : UTC 2013-05-14 00:47:07
    Tagged date                              : UTC 2013-05-14 00:47:07
    
    Video
    ID                                       : 1
    Format                                   : AVC
    Format/Info                              : Advanced Video Codec
    Format profile                           : [email protected]
    Format settings, CABAC                   : Yes
    Format settings, ReFrames                : 9 frames
    Codec ID                                 : avc1
    Codec ID/Info                            : Advanced Video Coding
    Duration                                 : 27mn 7s
    Bit rate                                 : 1 180 Kbps
    Maximum bit rate                         : 10.5 Mbps
    Width                                    : 1 280 pixels
    Height                                   : 720 pixels
    Display aspect ratio                     : 16:9
    Frame rate mode                          : Constant
    Frame rate                               : 23.976 fps
    Color space                              : YUV
    Chroma subsampling                       : 4:2:0
    Bit depth                                : 8 bits
    Scan type                                : Progressive
    Bits/(Pixel*Frame)                       : 0.053
    Stream size                              : 229 MiB (86%)
    Title                                    : Video
    Writing library                          : x264 core 125 r2208 d9d2288
    Encoding settings                        : cabac=1 / ref=9 / deblock=1:1:1 / analyse=0x3:0x133 / me=umh / subme=10 / psy=1 / psy_rd=0.60:0.15 / mixed_ref=1 / me_range=24 / chroma_me=1 / trellis=2 / 8x8dct=1 / cqm=0 / deadzone=21,11 / fast_pskip=1 / chroma_qp_offset=-3 / threads=9 / lookahead_threads=1 / sliced_threads=0 / nr=0 / decimate=1 / interlaced=0 / bluray_compat=0 / constrained_intra=0 / bframes=9 / b_pyramid=2 / b_adapt=2 / b_bias=0 / direct=3 / weightb=1 / open_gop=0 / weightp=2 / keyint=250 / keyint_min=23 / scenecut=40 / intra_refresh=0 / rc_lookahead=60 / rc=crf / mbtree=0 / crf=18.0 / qcomp=0.60 / qpmin=0 / qpmax=69 / qpstep=4 / vbv_maxrate=25000 / vbv_bufsize=25000 / crf_max=0.0 / nal_hrd=none / ip_ratio=1.40 / pb_ratio=1.30 / aq=2:0.80
    Encoded date                             : UTC 2013-05-14 00:47:07
    Tagged date                              : UTC 2013-05-14 00:47:10
    
    Audio
    ID                                       : 2
    Format                                   : AAC
    Format/Info                              : Advanced Audio Codec
    Format profile                           : LC
    Codec ID                                 : 40
    Duration                                 : 27mn 13s
    Bit rate mode                            : Variable
    Bit rate                                 : 192 Kbps
    Maximum bit rate                         : 257 Kbps
    Channel(s)                               : 2 channels
    Channel positions                        : Front: L R
    Sampling rate                            : 48.0 KHz
    Compression mode                         : Lossy
    Stream size                              : 36.9 MiB (14%)
    Language                                 : Japanese
    Encoded date                             : UTC 2013-05-14 00:47:10
    Tagged date                              : UTC 2013-05-14 00:47:10
    
    


    1080p
    Code:
    
    Format                                   : MPEG-4
    Format profile                           : Base Media
    Codec ID                                 : isom
    File size                                : 415 MiB
    Duration                                 : 27mn 13s
    Overall bit rate mode                    : Variable
    Overall bit rate                         : 2 133 Kbps
    Encoded date                             : UTC 2013-04-02 04:42:29
    Tagged date                              : UTC 2013-04-02 04:42:29
    
    Video
    ID                                       : 1
    Format                                   : AVC
    Format/Info                              : Advanced Video Codec
    Format profile                           : High [email protected]
    Format settings, CABAC                   : Yes
    Format settings, ReFrames                : 14 frames
    Codec ID                                 : avc1
    Codec ID/Info                            : Advanced Video Coding
    Duration                                 : 27mn 7s
    Bit rate                                 : 1 947 Kbps
    Maximum bit rate                         : 23.1 Mbps
    Width                                    : 1 920 pixels
    Height                                   : 1 080 pixels
    Display aspect ratio                     : 16:9
    Frame rate mode                          : Constant
    Frame rate                               : 23.976 fps
    Color space                              : YUV
    Chroma subsampling                       : 4:2:0
    Bit depth                                : 10 bits
    Scan type                                : Progressive
    Bits/(Pixel*Frame)                       : 0.039
    Stream size                              : 378 MiB (91%)
    Title                                    : Video
    Writing library                          : x264 core 125 r2208 d9d2288
    Encoding settings                        : cabac=1 / ref=14 / deblock=1:1:1 / analyse=0x3:0x133 / me=umh / subme=10 / psy=1 / psy_rd=0.70:0.10 / mixed_ref=1 / me_range=24 / chroma_me=1 / trellis=2 / 8x8dct=1 / cqm=0 / deadzone=21,11 / fast_pskip=1 / chroma_qp_offset=-3 / threads=9 / lookahead_threads=1 / sliced_threads=0 / nr=0 / decimate=1 / interlaced=0 / bluray_compat=0 / constrained_intra=0 / bframes=16 / b_pyramid=2 / b_adapt=2 / b_bias=0 / direct=3 / weightb=1 / open_gop=0 / weightp=2 / keyint=250 / keyint_min=23 / scenecut=40 / intra_refresh=0 / rc_lookahead=80 / rc=crf / mbtree=1 / crf=18.0 / qcomp=0.60 / qpmin=0 / qpmax=81 / qpstep=4 / ip_ratio=1.40 / aq=2:0.80
    Encoded date                             : UTC 2013-04-02 04:42:29
    Tagged date                              : UTC 2013-04-02 04:42:32
    
    Audio
    ID                                       : 2
    Format                                   : AAC
    Format/Info                              : Advanced Audio Codec
    Format profile                           : LC
    Codec ID                                 : 40
    Duration                                 : 27mn 13s
    Bit rate mode                            : Variable
    Bit rate                                 : 192 Kbps
    Maximum bit rate                         : 257 Kbps
    Channel(s)                               : 2 channels
    Channel positions                        : Front: L R
    Sampling rate                            : 48.0 KHz
    Compression mode                         : Lossy
    Stream size                              : 36.9 MiB (9%)
    Language                                 : Japanese
    Encoded date                             : UTC 2013-04-02 04:42:32
    Tagged date                              : UTC 2013-04-02 04:42:32
    
    








    Geschützter Bereich - Bedanke dich beim Poster, um den Bereich sehen zu können
    Hier erfährst Du wie Du Dich bedanken kannst oder werde jetzt Premium Mitglied ab einer Spende von 5€ und erhalte sofortigen Zugriff auf den Downloadbereich!



    [Links sind nur für registrierte und aktivierte Nutzer sichtbar. Klicke hier um dich zu registrieren.]
    Geändert von so1k (12. October 2016 um 20:37 Uhr)
    !!!Alle Anliegen bezüglich Uploads werden nur mit direktem Threadlink zum Angebot bearbeitet!!!

    Re-Uploadanfragen nur per PN - Ihr könnt mir auch Listen schicken

    Re-Uploads erfolgen meist innerhalb 24h, kann aber auch bis zu 7 Tage dauern

    [Links sind nur für registrierte und aktivierte Nutzer sichtbar. Klicke hier um dich zu registrieren.] | [Links sind nur für registrierte und aktivierte Nutzer sichtbar. Klicke hier um dich zu registrieren.] | >[Links sind nur für registrierte und aktivierte Nutzer sichtbar. Klicke hier um dich zu registrieren.]<
    [Links sind nur für registrierte und aktivierte Nutzer sichtbar. Klicke hier um dich zu registrieren.]

  2. 22 Benutzer sagen Danke:

    Akio (21. February 2016),alexrr7 (5. June 2016),basdi (4. February 2016),Ch1quita (12. January 2016),FantasticZ (13. January 2016),God only knows (26. March 2016),Ikari-sama (24. July 2016),johnny10 (10. March 2016),Kaede (18. February 2016),Kenny328 (28. January 2016),knanime (7. February 2016),Kushikime (5. June 2016),MattDeox (13. October 2016),merb (29. February 2016),midnighter (20. January 2016),Miriweth (9. April 2016),norby (13. January 2016),Pazu (17. April 2016),PreciseBlade (16. January 2016),Windwusel (8. January 2016),Zapzerap (10. March 2016),zoe#449 (29. March 2016)

Lesezeichen

Berechtigungen

  • Neue Themen erstellen: Nein
  • Themen beantworten: Nein
  • Anhänge hochladen: Nein
  • Beiträge bearbeiten: Nein
  •  

1 2 3 4 5 6 7 8 9 10 11 12 13 14 15 16 17 18 19 20 21 22 23 24 25 26 27 28 29 30 31 32 33 34 35 36 37 38 39 40 41 42 43 44 45 46 47 48 49 50 51 52 53 54 55 56 57 58 59 60 61 62 63 64 65 66 67 68 69 70 71 72 73 74 75 76 77 78 79 80 81 82 83 84 85 86 87 88 89 90 91 92 93 94 95 96 97 98 99 100 101 102 103 104 105 106 107 108 109 110 111 112 113 114 115 116 117 118 119 120 121 122 123 124 125 126 127 128 129 130 131 132 133 134 135 136 137 138 139 140 141 142 143 144 145 146 147 148 149 150 151 152 153 154 155 156 157 158