Ergebnis 1 bis 1 von 1

Thema: Ore tachi ni Tsubasa wa Nai [Jap-Dub][Ger-Sub][720p][HDTV]

Dieser Thread wurde noch nicht bewertet. Bewerte ihn doch, wenn er dir gefällt!
  1. #1
    Uploader Avatar von Filbo11
    Registriert seit
    Jan 2015
    Beiträge
    927
    Punkte
    17.224
    Errungenschaften:
    TomodachisErste Gruppe1 Jahr registriertCreated Album picturesTagger First Class

    Ore tachi ni Tsubasa wa Nai [Jap-Dub][Ger-Sub][720p][HDTV]

    Ore-tachi ni Tsubasa wa Nai
    俺たちに翼はない
    We Without Wings: Under the Innocent Sky
    OreTsuba, Oretachi ni Tsubasa wa Nai




    Handlung

    Es ist Winter in der Großstadt Yanagihara und junge Leute treffen und verlieben sich. Takashi ist ein Junge, der plant, in eine andere Welt zu entfliehen, wird aber durch die Gedanken an seine jüngere Schwester Kobato und seine Freundin Asuka zurückgehalten. Shusuke ist ein armer Teilzeitarbeiter, der mit dem Schüler-Autor Hiyoko zusammenarbeiten muss, obwohl die beiden sich zu Beginn nicht mögen. Der asoziale Hayato muss sich als "Mädchen für alles" durchschlagen, bis er von einem Mädchen namens Naru besucht wird.


    Format: avi
    Dauer: ca. 24 min
    Größe: ca. 250-270 MB
    Genres: Comedy, Drama, Ecchi, Romance, Harem, Psychological
    Episodenanzahl: 12/12
    Sprache: Japanisch
    Untertitel: Deutsch
    Group: [McCoffee]
    Hoster: Uploaded.net & Share-Online.biz
    kein PW


    Screenshots & MediaInfo

    Spoiler
    [Links sind nur für registrierte und aktivierte Nutzer sichtbar. Klicke hier um dich zu registrieren.]
    [Links sind nur für registrierte und aktivierte Nutzer sichtbar. Klicke hier um dich zu registrieren.]

    Code:
    General
    Complete name               : [McCoffee]_Ore-Tachi_ni_Tsubasa_wa_Nai_01_[720p].avi
    Format                      : AVI
    Format/Info                 : Audio Video Interleave
    File size                   : 269 MiB
    Duration                    : 24mn 24s
    Overall bit rate            : 1 542 Kbps
    Writing application         : VirtualDubMod 1.5.10.2 (build 2542/release)
    Writing library             : VirtualDubMod build 2542/release
    
    Video
    ID                          : 0
    Format                      : MPEG-4 Visual
    Format profile              : Advanced [email protected]
    Format settings, BVOP       : 1
    Format settings, QPel       : No
    Format settings, GMC        : No warppoints
    Format settings, Matrix     : Default (H.263)
    Muxing mode                 : Packed bitstream
    Codec ID                    : XVID
    Codec ID/Hint               : XviD
    Duration                    : 24mn 24s
    Bit rate                    : 1 404 Kbps
    Width                       : 1 280 pixels
    Height                      : 720 pixels
    Display aspect ratio        : 16:9
    Frame rate                  : 23.976 fps
    Color space                 : YUV
    Chroma subsampling          : 4:2:0
    Bit depth                   : 8 bits
    Scan type                   : Progressive
    Compression mode            : Lossy
    Bits/(Pixel*Frame)          : 0.064
    Stream size                 : 245 MiB (91%)
    Writing library             : XviD 1.2.1 (UTC 2008-12-04)
    
    Audio
    ID                          : 1
    Format                      : MPEG Audio
    Format version              : Version 1
    Format profile              : Layer 3
    Mode                        : Joint stereo
    Codec ID                    : 55
    Codec ID/Hint               : MP3
    Duration                    : 24mn 24s
    Bit rate mode               : Constant
    Bit rate                    : 128 Kbps
    Channel(s)                  : 2 channels
    Sampling rate               : 44.1 KHz
    Compression mode            : Lossy
    Stream size                 : 22.3 MiB (8%)
    Alignment                   : Split accross interleaves
    Interleave, duration        : 42 ms (1.00 video frame)
    Interleave, preload duratio : 500 ms
    Writing library             : LAME3.98.2



    Download
    Geschützter Bereich - Bedanke dich beim Poster, um den Bereich sehen zu können
    Hier erfährst Du wie Du Dich bedanken kannst oder werde jetzt Premium Mitglied ab einer Spende von 5€ und erhalte sofortigen Zugriff auf den Downloadbereich!

    Geändert von Filbo11 (12. April 2016 um 10:19 Uhr)

    [Links sind nur für registrierte und aktivierte Nutzer sichtbar. Klicke hier um dich zu registrieren.]

    Ich wäre allen sehr dankbar, die mir gravierende Fehler in meinen Releases per PN melden

  2. 36 Benutzer sagen Danke:

    Ace360 (26. July 2015),Aikanary (18. April 2015),aironic_inactive (19. July 2015),Aluaran (17. April 2015),azzieh (3. October 2015),Bloodywaffe (27. November 2015),Ceex (26. April 2015),Ch1quita (16. April 2015),Conopas (16. April 2015),enfii (16. April 2015),foiderbua (31. December 2015),Ghostraven (26. November 2015),IRazziCz (3. May 2015),Juckz (16. April 2015),krasserGaul (16. April 2015),Lautrerbomber (16. April 2015),LawrenceKraft (24. January 2016),Linpos (21. April 2015),mar3el (21. June 2015),mcfronta_inactive (4. May 2015),midnighter (17. April 2015),Miles360 (16. April 2015),Noire16 (26. June 2015),piggsylol (15. June 2015),Raphael96 (22. April 2016),Ronae (16. April 2015),Roxy (17. July 2015),sansaku (16. April 2015),Sansento (18. April 2015),SnowCat (17. April 2015),Solinger34 (14. May 2015),Tidus18 (25. February 2016),UndeadBan (26. June 2015),WayneBrady (5. May 2015),Windwusel (17. April 2015),xRei (11. October 2015)

Lesezeichen

Berechtigungen

  • Neue Themen erstellen: Nein
  • Themen beantworten: Nein
  • Anhänge hochladen: Nein
  • Beiträge bearbeiten: Nein
  •  

1 2 3 4 5 6 7 8 9 10 11 12 13 14 15 16 17 18 19 20 21 22 23 24 25 26 27 28 29 30 31 32 33 34 35 36 37 38 39 40 41 42 43 44 45 46 47 48 49 50 51 52 53 54 55 56 57 58 59 60 61 62 63 64 65 66 67 68 69 70 71 72 73 74 75 76 77 78 79 80 81 82 83 84 85 86 87 88 89 90 91 92 93 94 95 96 97 98 99 100 101 102 103 104 105 106 107 108 109 110 111 112 113 114 115 116 117 118 119 120 121 122 123 124 125 126 127 128 129 130 131 132 133 134 135 136 137 138 139 140 141 142 143 144 145 146 147 148 149 150 151 152 153 154 155 156 157 158