Ergebnis 1 bis 4 von 4

Thema: Ore, Twintails ni Narimasu [Jap-Dub][Ger-Sub][720p][HDTV]

Dieser Thread wurde noch nicht bewertet. Bewerte ihn doch, wenn er dir gefällt!
  1. #1
    Uploader Avatar von Filbo11
    Registriert seit
    Jan 2015
    Beiträge
    926
    Punkte
    17.174
    Errungenschaften:
    TomodachisErste Gruppe1 Jahr registriertCreated Album picturesTagger First Class

    Ore, Twintails ni Narimasu [Jap-Dub][Ger-Sub][720p][HDTV]

    Ore, Twintails ni Narimasu.
    俺、ツインテールになります。
    Gonna Be the Twin-Tail!!





    Handlung

    Der Schüler Soji Mitsuka hat eine Vorliebe für Mädchen mit zwei Zöpfen. Eines Tages trifft er auf ein geheimnissvolles und schönes Mädchen namens Thouars, welches aus einem Paralleluniversum kommt. Zur selben Zeit erscheinen Monster in der Stadt, die behaupten, dass alle Mädchen mit zwei Zöpfen ihnen gehören. Thouars leiht ihm für die Rettung der Menschheit und der Mädchen mit zwei Zöpfen das Tail Gear, eine imaginäre Rüstung, welche ihm die Kraft gibt sich in ein rotes Kriegermädchen mit übernatürlichen Kräften - und einem Twintail - zu verwandeln, um die Kreaturen zu bekämpfen.


    Format: mp4
    Dauer: ca. 24 min (pro folge)
    Größe: ca. 300 - 400 MB
    Sprache: Japanisch
    Untertitel: Deutsch
    Group: Mirai-Fansubs
    Hoster: Uploaded.net & Share-Online.biz
    kein PW


    Screenshots & Info

    Spoiler
    [Links sind nur für registrierte und aktivierte Nutzer sichtbar. Klicke hier um dich zu registrieren.]
    [Links sind nur für registrierte und aktivierte Nutzer sichtbar. Klicke hier um dich zu registrieren.]

    MediaInfo
    Code:
    General
    
    Format                      : MPEG-4
    Format profile              : Base Media
    Codec ID                    : isom
    File size                   : 377 MiB
    Duration                    : 24mn 29s
    Overall bit rate mode       : Variable
    Overall bit rate            : 2 153 Kbps
    Encoded date                : UTC 2014-10-31 17:14:35
    Tagged date                 : UTC 2014-10-31 17:14:35
    
    Video
    ID                          : 1
    Format                      : AVC
    Format/Info                 : Advanced Video Codec
    Format profile              : [email protected]
    Format settings, CABAC      : Yes
    Format settings, ReFrames   : 8 frames
    Codec ID                    : avc1
    Codec ID/Info               : Advanced Video Coding
    Duration                    : 24mn 29s
    Bit rate                    : 1 961 Kbps
    Maximum bit rate            : 9 609 Kbps
    Width                       : 1 280 pixels
    Height                      : 720 pixels
    Display aspect ratio        : 16:9
    Frame rate mode             : Constant
    Frame rate                  : 23.976 fps
    Color space                 : YUV
    Chroma subsampling          : 4:2:0
    Bit depth                   : 8 bits
    Scan type                   : Progressive
    Bits/(Pixel*Frame)          : 0.089
    Stream size                 : 344 MiB (91%)
    Writing library             : x264 core 142 r2431 ac76440
    Encoding settings           : cabac=1 / ref=8 / deblock=1:0:0 / analyse=0x3:0x133 / me=umh / subme=11 / psy=1 / psy_rd=1.00:0.00 / mixed_ref=1 / me_range=16 / chroma_me=1 / trellis=2 / 8x8dct=1 / cqm=0 / deadzone=21,11 / fast_pskip=1 / chroma_qp_offset=-2 / threads=12 / lookahead_threads=1 / sliced_threads=0 / nr=0 / decimate=1 / interlaced=0 / bluray_compat=0 / constrained_intra=0 / bframes=3 / b_pyramid=2 / b_adapt=2 / b_bias=0 / direct=3 / weightb=1 / open_gop=0 / weightp=2 / keyint=250 / keyint_min=23 / scenecut=40 / intra_refresh=0 / rc_lookahead=60 / rc=crf / mbtree=1 / crf=16.0 / qcomp=0.60 / qpmin=0 / qpmax=69 / qpstep=4 / ip_ratio=1.40 / aq=1:1.00
    Encoded date                : UTC 2014-10-31 17:08:50
    Tagged date                 : UTC 2014-10-31 17:14:35
    
    Audio
    ID                          : 2
    Format                      : AAC
    Format/Info                 : Advanced Audio Codec
    Format profile              : LC
    Codec ID                    : 40
    Duration                    : 24mn 29s
    Bit rate mode               : Variable
    Bit rate                    : 192 Kbps
    Maximum bit rate            : 197 Kbps
    Channel(s)                  : 2 channels
    Channel positions           : Front: L R
    Sampling rate               : 48.0 KHz
    Compression mode            : Lossy
    Stream size                 : 33.1 MiB (9%)
    Title                       : Original
    Language                    : Japanese
    Encoded date                : UTC 2014-10-13 09:22:11
    Tagged date                 : UTC 2014-10-31 17:14:35


    Alle Mirrors untereinander kompatibel
    Folgen einzeln ladbar
    Folge 12/12 online


    Download
    Geschützter Bereich - Bedanke dich beim Poster, um den Bereich sehen zu können
    Hier erfährst Du wie Du Dich bedanken kannst oder werde jetzt Premium Mitglied ab einer Spende von 5€ und erhalte sofortigen Zugriff auf den Downloadbereich!


    Geändert von Filbo11 (12. April 2016 um 10:21 Uhr) Grund: folge 12 online somit komplett

    [Links sind nur für registrierte und aktivierte Nutzer sichtbar. Klicke hier um dich zu registrieren.]

    Ich wäre allen sehr dankbar, die mir gravierende Fehler in meinen Releases per PN melden

  2. 50 Benutzer sagen Danke:

    andiB (15. March 2015),andy6 (28. May 2016),animesoulx3 (22. January 2016),ansyeiraso (30. April 2015),Apocaliptica (28. March 2015),BlackDragon333 (31. August 2015),Bloodrevenge (9. April 2015),cfg1340 (26. April 2015),Crimzan (7. May 2015),DasNya (14. April 2015),Draagul (27. March 2015),Etzlo (25. February 2016),Geisterhaendler (19. July 2016),Haku94 (17. April 2015),iCornflakes (17. April 2015),Juckz (22. March 2015),Kanata (19. September 2015),Kazujatachi (17. April 2015),Kitefist (9. September 2015),Kuddel (21. September 2016),La-Jumper (15. June 2015),LOL Meister (22. November 2015),luko8000 (7. April 2015),Magicmanx (26. January 2016),mccharly (19. July 2015),MC_Kay (9. August 2015),mib00 (26. March 2015),midnighter (10. March 2015),Miles360 (22. March 2015),Modell_Thomas (28. April 2015),MrRainer9able (3. April 2015),Nanatzusaya (22. March 2015),ruffy1989 (12. March 2015),Sakamoto (9. March 2015),sansaku (2. April 2015),Scorns (11. March 2015),Shadow7525 (22. March 2015),SnowCat (9. March 2015),SONNYxq (27. March 2015),StaZ~ (27. March 2015),swagrid (25. February 2016),Sylux (27. September 2015),tokyodrift (24. December 2015),Tschu23 (12. June 2015),Valetinese (22. March 2015),WayneBrady (6. April 2015),Windwusel (7. May 2015),Wölfchen (12. June 2015),Xerx3s (7. April 2015),Zapzerap (23. August 2015)

  3. #2
    Uploader Avatar von Filbo11
    Registriert seit
    Jan 2015
    Beiträge
    926
    Punkte
    17.174
    Errungenschaften:
    TomodachisErste Gruppe1 Jahr registriertCreated Album picturesTagger First Class

    AW: Ore, Twintails ni Narimasu [Jap-Dub][Ger-Sub][720p][HDTV]

    folge 9 online

    [Links sind nur für registrierte und aktivierte Nutzer sichtbar. Klicke hier um dich zu registrieren.]

    Ich wäre allen sehr dankbar, die mir gravierende Fehler in meinen Releases per PN melden

  4. 1 Benutzer sagt Danke:

    SnowCat (16. March 2015)

  5. #3
    Uploader Avatar von Filbo11
    Registriert seit
    Jan 2015
    Beiträge
    926
    Punkte
    17.174
    Errungenschaften:
    TomodachisErste Gruppe1 Jahr registriertCreated Album picturesTagger First Class

    AW: Ore, Twintails ni Narimasu [Jap-Dub][Ger-Sub][720p][HDTV]

    folge 10 & 11 online

    [Links sind nur für registrierte und aktivierte Nutzer sichtbar. Klicke hier um dich zu registrieren.]

    Ich wäre allen sehr dankbar, die mir gravierende Fehler in meinen Releases per PN melden

  6. 1 Benutzer sagt Danke:

    SnowCat (24. March 2015)

  7. #4
    Uploader Avatar von Filbo11
    Registriert seit
    Jan 2015
    Beiträge
    926
    Punkte
    17.174
    Errungenschaften:
    TomodachisErste Gruppe1 Jahr registriertCreated Album picturesTagger First Class

    AW: Ore, Twintails ni Narimasu [Jap-Dub][Ger-Sub][720p][HDTV]

    folge 12 online somit komplett

    Info: Es wird an einer BD Version gearbeitet und auch hier in kürze verfügbar sein.

    [Links sind nur für registrierte und aktivierte Nutzer sichtbar. Klicke hier um dich zu registrieren.]

    Ich wäre allen sehr dankbar, die mir gravierende Fehler in meinen Releases per PN melden

  8. 1 Benutzer sagt Danke:

    SnowCat (14. April 2015)

Stichworte

Lesezeichen

Berechtigungen

  • Neue Themen erstellen: Nein
  • Themen beantworten: Nein
  • Anhänge hochladen: Nein
  • Beiträge bearbeiten: Nein
  •  

1 2 3 4 5 6 7 8 9 10 11 12 13 14 15 16 17 18 19 20 21 22 23 24 25 26 27 28 29 30 31 32 33 34 35 36 37 38 39 40 41 42 43 44 45 46 47 48 49 50 51 52 53 54 55 56 57 58 59 60 61 62 63 64 65 66 67 68 69 70 71 72 73 74 75 76 77 78 79 80 81 82 83 84 85 86 87 88 89 90 91 92 93 94 95 96 97 98 99 100 101 102 103 104 105 106 107 108 109 110 111 112 113 114 115 116 117 118 119 120 121 122 123 124 125 126 127 128 129 130 131 132 133 134 135 136 137 138 139 140 141 142 143 144 145 146 147 148 149 150 151 152 153 154 155 156 157 158