Ergebnis 1 bis 1 von 1

Thema: Otome Youkai Zakuro [Ger-Sub][Jap-Dub][DVDRip]

Dieser Thread wurde noch nicht bewertet. Bewerte ihn doch, wenn er dir gefällt!
  1. #1
    Erfahrener Otaku Avatar von Kajiro
    Registriert seit
    Mar 2014
    Ort
    Irgendwo im Nirgendwo
    Beiträge
    213
    Punkte
    10.403
    Errungenschaften:
    10000 ErfahrungspunkteHikikomori

    Otome Youkai Zakuro [Ger-Sub][Jap-Dub][DVDRip]


    Otome Youkai Zakuro





    Kurzbeschreibung:
    Wir befinden uns in einem Japan der Meiji Ära, in der Menschen und Youkais koexistieren. Um der Konflikte unter ihnen Herr zu werden, gründet die Regierung das "Ministerium für Youkai und Menschen", dessen Aufgabe es ist, für Frieden zu sorgen. Die Mitarbeiter des Ministeriums bestehen dabei sowohl aus Menschen, als auch aus Youkais, sowie aus dem Mensch-Youkai-Mischlingsmädchen Zakuro. Gemeinsam kämpfen sie für ein besseres Verständnis zwischen den beiden Gruppierungen.


    Sprache: Japanisch
    Untertitel: Deutsch
    Größe: ~250 MB
    Format: MP4
    Auflösung: 848x480 x264
    Sub Gruppe: [C-Subs]


    Datei Info:
    Spoiler
    Video
    ID : 1
    Format : AVC
    Format/Info : Advanced Video Codec
    Format profile : [email protected]
    Format settings, CABAC : Yes
    Format settings, ReFrames : 4 frames
    Codec ID : avc1
    Codec ID/Info : Advanced Video Coding
    Duration : 24mn 22s
    Bit rate : 1 304 Kbps
    Maximum bit rate : 7 207 Kbps
    Width : 848 pixels
    Height : 480 pixels
    Display aspect ratio : 16:9
    Frame rate mode : Constant
    Frame rate : 23.976 fps
    Color space : YUV
    Chroma subsampling : 4:2:0
    Bit depth : 8 bits
    Scan type : Progressive
    Bits/(Pixel*Frame) : 0.134
    Stream size : 227 MiB (91%)
    Writing library : x264 core 116 r2074

    Audio
    ID : 2
    Format : AAC
    Format/Info : Advanced Audio Codec
    Format profile : HE-AAC / LC
    Codec ID : 40
    Duration : 24mn 22s
    Bit rate mode : Variable
    Bit rate : 128 Kbps
    Maximum bit rate : 156 Kbps
    Channel(s) : 2 channels
    Channel positions : Front: L R
    Sampling rate : 48.0 KHz / 24.0 KHz
    Compression mode : Lossy
    Delay relative to video : -3s 337ms
    Stream size : 22.3 MiB (9%)





    Geschützter Bereich - Bedanke dich beim Poster, um den Bereich sehen zu können
    Hier erfährst Du wie Du Dich bedanken kannst oder werde jetzt Premium Mitglied ab einer Spende von 5€ und erhalte sofortigen Zugriff auf den Downloadbereich!

    Inaktiver Uploader!

    Alle Re-Upload-Anfragen öffentlich im [Links sind nur für registrierte und aktivierte Nutzer sichtbar. Klicke hier um dich zu registrieren.] posten!

  2. 22 Benutzer sagen Danke:

    Akio (21. February 2016),Aluaran (29. May 2014),Angel86 (11. May 2014),bjoegi (4. February 2015),Bloodywaffe (25. October 2015),famoon (11. April 2016),Fox Faram (12. August 2015),hnnnn (20. February 2016),Keldaan (9. November 2014),Kibapadda (19. June 2015),krausi22 (18. September 2014),Lamperouge (6. November 2015),Magikarp (22. November 2016),McZeRo (15. December 2015),Melijal (9. April 2015),MimikoSaiko (14. August 2015),old nick (16. July 2016),prinzvegeta (29. November 2015),Rheijaa (28. January 2015),SnowCat (10. May 2014),The_Iron (10. May 2014),Wölfchen (1. May 2015)

Lesezeichen

Berechtigungen

  • Neue Themen erstellen: Nein
  • Themen beantworten: Nein
  • Anhänge hochladen: Nein
  • Beiträge bearbeiten: Nein
  •  

1 2 3 4 5 6 7 8 9 10 11 12 13 14 15 16 17 18 19 20 21 22 23 24 25 26 27 28 29 30 31 32 33 34 35 36 37 38 39 40 41 42 43 44 45 46 47 48 49 50 51 52 53 54 55 56 57 58 59 60 61 62 63 64 65 66 67 68 69 70 71 72 73 74 75 76 77 78 79 80 81 82 83 84 85 86 87 88 89 90 91 92 93 94 95 96 97 98 99 100 101 102 103 104 105 106 107 108 109 110 111 112 113 114 115 116 117 118 119 120 121 122 123 124 125 126 127 128 129 130 131 132 133 134 135 136 137 138 139 140 141 142 143 144 145 146 147 148 149 150 151 152 153 154 155 156 157 158