Ergebnis 1 bis 9 von 9

Thema: Overlord [Jap-Dub][Ger-Sub][720p][8Bit/10Bit][HDTV] - Chinurarete-Subs

Dieser Thread wurde noch nicht bewertet. Bewerte ihn doch, wenn er dir gefällt!
  1. #1
    United we Stand Avatar von 00Ryuji00
    Registriert seit
    Oct 2012
    Beiträge
    3.902
    Punkte
    99.909
    Errungenschaften:
    TomodachisGang LeaderHikikomoriTagger Amateur50000 Erfahrungspunkte

    Overlord [Jap-Dub][Ger-Sub][720p][8Bit/10Bit][HDTV] - Chinurarete-Subs

    Overlord
    オーバーロード
    Over Lord



    Kurzbeschreibung:
    Die Geschichte beginnt mit dem beliebten Online-Spiel Yggdrasil, das eines Tages im Jahr 2138 abgeschaltet werden soll. Momonga, der Protagonist, will sich jedoch nicht ausloggen. Daraufhin wird Momonga in einen mächtigen Skelett-Magier verwandelt. Die Welt von Yggdrasil verändert sich daraufhin, sodass NPCs plötzlich Emitionen und ein eigenes Bewusstsein bekommen.
    Ohne Eltern, Freunde oder einen Platz in der Gesellschaft versucht dieser junge Mann, die neue Welt zu erobern, die aus dem Spiel Yggdrasil entstanden ist.
    Sprache: Japanisch
    Untertitel: Deutsch
    Spieldauer: ~ 24min
    Größe: ~ 400-500MB
    Episodenanzahl: 13/13
    Format: .mp4, .mkv
    Auflösung: 720p-8Bit/-10Bit (1280x720, 16:9)
    Codec: x264, AAC
    Gruppe: Chinurarete Subs
    Hoster: Uploaded, Share-Online

    Datei-Info.:
    Spoiler
    720p-8Bit
    Code:
    Format                                   : MPEG-4
    Format profile                           : Base Media
    Codec ID                                 : isom
    File size                                : 419 MiB
    Duration                                 : 23mn 53s
    Overall bit rate mode                    : Variable
    Overall bit rate                         : 2 452 Kbps
    Encoded date                             : UTC 2015-07-27 19:55:26
    Tagged date                              : UTC 2015-07-27 19:55:26
    
    Video
    ID                                       : 1
    Format                                   : AVC
    Format/Info                              : Advanced Video Codec
    Format profile                           : [email protected]
    Format settings, CABAC                   : Yes
    Format settings, ReFrames                : 9 frames
    Codec ID                                 : avc1
    Codec ID/Info                            : Advanced Video Coding
    Duration                                 : 23mn 52s
    Bit rate                                 : 2 197 Kbps
    Maximum bit rate                         : 13.8 Mbps
    Width                                    : 1 280 pixels
    Height                                   : 720 pixels
    Display aspect ratio                     : 16:9
    Frame rate mode                          : Constant
    Frame rate                               : 23.976 fps
    Color space                              : YUV
    Chroma subsampling                       : 4:2:0
    Bit depth                                : 8 bits
    Scan type                                : Progressive
    Bits/(Pixel*Frame)                       : 0.099
    Stream size                              : 375 MiB (90%)
    Writing library                          : x264 core 142 r2409kMod d6b4e63
    Encoding settings                        : cabac=1 / ref=9 / deblock=1:0:0 / analyse=0x1:0x131 / me=umh / subme=11 / psy=1 / fade_compensate=0.00 / psy_rd=1.00:0.00 / mixed_ref=1 / me_range=32 / chroma_me=1 / trellis=2 / 8x8dct=0 / cqm=0 / deadzone=21,11 / fast_pskip=0 / chroma_qp_offset=-2 / threads=6 / lookahead_threads=1 / sliced_threads=0 / nr=0 / decimate=0 / interlaced=0 / bluray_compat=0 / constrained_intra=0 / fgo=0 / bframes=16 / b_pyramid=2 / b_adapt=2 / b_bias=0 / direct=3 / weightb=1 / open_gop=0 / weightp=2 / keyint=250 / keyint_min=23 / scenecut=40 / intra_refresh=0 / rc_lookahead=250 / rc=crf / mbtree=1 / crf=16.0000 / qcomp=0.75 / qpmin=0 / qpmax=69 / qpstep=4 / ip_ratio=1.40 / aq=2:0.86
    Encoded date                             : UTC 2015-07-27 19:55:26
    Tagged date                              : UTC 2015-07-27 19:55:29
    Color primaries                          : BT.709
    Transfer characteristics                 : BT.709
    Matrix coefficients                      : BT.709
    
    Audio
    ID                                       : 2
    Format                                   : AAC
    Format/Info                              : Advanced Audio Codec
    Format profile                           : LC
    Codec ID                                 : 40
    Duration                                 : 23mn 53s
    Bit rate mode                            : Variable
    Bit rate                                 : 252 Kbps
    Maximum bit rate                         : 261 Kbps
    Channel count                            : 2 channels
    Channel positions                        : Front: L R
    Sampling rate                            : 48.0 KHz
    Compression mode                         : Lossy
    Stream size                              : 43.0 MiB (10%)
    Encoded date                             : UTC 2015-07-27 19:55:28
    Tagged date                              : UTC 2015-07-27 19:55:29
    
    Menu
    00:00:00.000                             : Einleitung
    00:01:44.938                             : Opening
    00:03:14.986                             : Hauptteil
    00:22:23.000                             : Ending
    720p-10Bit
    Code:
    Format                                   : Matroska
    Format version                           : Version 4 / Version 2
    File size                                : 466 MiB
    Duration                                 : 23mn 45s
    Overall bit rate                         : 2 744 Kbps
    Movie name                               : [Chinurarete Subs] Overlord - Folge 01 - Anfang und Ende
    Encoded date                             : UTC 2015-07-28 16:18:54
    Writing application                      : mkvmerge v7.0.0 ('Where We Going') 64bit built on Jun  9 2014 15:16:27
    Writing library                          : libebml v1.3.0 + libmatroska v1.4.1
    Attachment                               : Yes / Yes / Yes
    
    Video
    ID                                       : 1
    Format                                   : AVC
    Format/Info                              : Advanced Video Codec
    Format profile                           : High [email protected]
    Format settings, CABAC                   : Yes
    Format settings, ReFrames                : 16 frames
    Codec ID                                 : V_MPEG4/ISO/AVC
    Duration                                 : 23mn 45s
    Width                                    : 1 280 pixels
    Height                                   : 720 pixels
    Display aspect ratio                     : 16:9
    Frame rate mode                          : Constant
    Frame rate                               : 23.976 fps
    Color space                              : YUV
    Chroma subsampling                       : 4:2:0
    Bit depth                                : 10 bits
    Scan type                                : Progressive
    Title                                    : Video
    Writing library                          : x264 core 133 r2334 a3ac64b
    Encoding settings                        : cabac=1 / ref=16 / deblock=1:1:0 / analyse=0x3:0x133 / me=umh / subme=11 / psy=1 / psy_rd=1.15:0.25 / mixed_ref=1 / me_range=30 / chroma_me=1 / trellis=2 / 8x8dct=1 / cqm=0 / deadzone=21,11 / fast_pskip=0 / chroma_qp_offset=-4 / threads=12 / lookahead_threads=3 / sliced_threads=0 / nr=0 / decimate=0 / interlaced=0 / bluray_compat=0 / constrained_intra=0 / bframes=16 / b_pyramid=2 / b_adapt=2 / b_bias=0 / direct=3 / weightb=1 / open_gop=0 / weightp=2 / keyint=249 / keyint_min=23 / scenecut=40 / intra_refresh=0 / rc_lookahead=249 / rc=crf / mbtree=1 / crf=16.0 / qcomp=0.90 / qpmin=0 / qpmax=81 / qpstep=4 / ip_ratio=1.40 / aq=2:0.80
    Language                                 : German
    Default                                  : Yes
    Forced                                   : Yes
    Color primaries                          : BT.709
    Transfer characteristics                 : BT.709
    Matrix coefficients                      : BT.709
    
    Audio
    ID                                       : 2
    Format                                   : AAC
    Format/Info                              : Advanced Audio Codec
    Format profile                           : LC
    Codec ID                                 : A_AAC
    Duration                                 : 23mn 45s
    Channel count                            : 2 channels
    Channel positions                        : Front: L R
    Sampling rate                            : 48.0 KHz
    Compression mode                         : Lossy
    Title                                    : Audio
    Language                                 : Japanese
    Default                                  : Yes
    Forced                                   : Yes
    
    Text #1
    ID                                       : 3
    Format                                   : ASS
    Codec ID                                 : S_TEXT/ASS
    Codec ID/Info                            : Advanced Sub Station Alpha
    Compression mode                         : Lossless
    Title                                    : Farbsub
    Language                                 : German
    Default                                  : Yes
    Forced                                   : Yes
    
    Text #2
    ID                                       : 4
    Format                                   : ASS
    Codec ID                                 : S_TEXT/ASS
    Codec ID/Info                            : Advanced Sub Station Alpha
    Compression mode                         : Lossless
    Title                                    : Kein Farbsub
    Language                                 : German
    Default                                  : No
    Forced                                   : No
    
    Menu
    00:00:00.000                             : de:Einleitung
    00:01:44.938                             : de:Opening
    00:03:14.986                             : de:Hauptteil
    00:22:09.995                             : de:Ending


    Geschützter Bereich - Bedanke dich beim Poster, um den Bereich sehen zu können
    Hier erfährst Du wie Du Dich bedanken kannst oder werde jetzt Premium Mitglied ab einer Spende von 5€ und erhalte sofortigen Zugriff auf den Downloadbereich!
    Geändert von 00Ryuji00 (12. April 2016 um 13:19 Uhr)
    !!!Alle Anliegen bezüglich Uploads werden nur mit direktem Threadlink zum Angebot bearbeitet!!!

    Re-Uploadanfragen nur per PN - Ihr könnt mir auch Listen schicken

    Re-Uploads erfolgen meist innerhalb 24h, kann aber auch bis zu 7 Tage dauern

    [Links sind nur für registrierte und aktivierte Nutzer sichtbar. Klicke hier um dich zu registrieren.] | [Links sind nur für registrierte und aktivierte Nutzer sichtbar. Klicke hier um dich zu registrieren.] | >[Links sind nur für registrierte und aktivierte Nutzer sichtbar. Klicke hier um dich zu registrieren.]<
    [Links sind nur für registrierte und aktivierte Nutzer sichtbar. Klicke hier um dich zu registrieren.]

  2. 155 Benutzer sagen Danke:

    Anzeigen

    Aikanary (25. November 2016),AkaneTendo (2. January 2016),Akatsuki (2. October 2015),Akulti (13. January 2016),Akuma1708 (9. February 2016),Akumah (22. November 2015),Antipott (17. September 2015),ApCeLlonDinG (21. March 2016),Apocaliptica (25. November 2015),archonize (10. August 2015),arginator (27. September 2015),Artheanos (3. August 2015),B3nnoX (6. September 2015),beckerm (29. December 2015),bjoegi (8. August 2015),BlackDragon333 (12. September 2015),blumentob (16. November 2015),BornToShoot (12. November 2015),bra1nbug94 (18. September 2015),Bruglin (7. October 2015),Cande (21. August 2015),Ch1quita (5. November 2015),chewbacka (25. March 2016),Chillasedi (2. March 2016),CrmnlBT (7. February 2016),DaaFloH (30. December 2015),Dalurin (10. January 2016),DarkChaos (10. August 2015),darthgonk (29. December 2015),DasNya (6. December 2015),DasOrginal (4. October 2015),Dr. Franken Stein (15. September 2015),Dr. Pepper (25. October 2015),Dragon29 (13. August 2015),Drezzo (15. October 2015),Dylan (5. May 2016),dzeko (8. January 2016),E4GLE (21. February 2016),enfii (4. September 2015),eraz (3. August 2015),Evilsensei (21. August 2015),Falyeon (4. September 2015),FantasticZ (3. November 2015),firenox89 (1. April 2016),Flint (7. November 2015),folgar (17. February 2016),Fox Faram (11. December 2015),Freezy (21. October 2015),galudo (4. April 2016),Geisterhaendler (21. October 2015),ghostrider1304 (11. December 2015),glolfighter (31. March 2016),God only knows (4. April 2016),Griever (23. January 2016),halit (24. November 2015),Halloweed (22. October 2015),hanfii (11. August 2015),Hardman (27. December 2015),helloplaya (21. October 2015),Heroic (2. August 2015),herrntod (28. January 2016),Hi im Shini (3. November 2015),Hidikus (19. October 2015),Hisamaki (17. October 2016),Hobbitgraf (6. August 2015),Holzmodem (16. March 2016),Hoodyhood (19. December 2015),Hyro (24. October 2015),IQcrack (11. August 2015),janik2009 (30. November 2016),KamiNoYari (4. August 2015),Kaori (8. December 2015),Kartox (15. October 2015),keku (24. November 2015),KeXiuS (31. January 2016),KICKinYaFACE (4. January 2016),KingDing15 (8. September 2015),kioz (1. December 2015),Kranzn (10. February 2016),Kuraiko55 (27. November 2015),Kushikime (21. May 2016),Kyuubi90 (23. December 2015),Lang (11. October 2015),LawMugen (8. September 2015),Lesyra (29. October 2015),Leviathan42 (19. November 2015),luko8000 (26. December 2015),manuell123 (24. November 2015),Max13493 (21. August 2015),mccharly (4. September 2015),MegaKiller (3. January 2016),Miau (24. October 2016),michael187 (26. November 2015),midnighter (4. August 2015),Miles360 (1. August 2015),Modell_Thomas (1. October 2015),Mosa (24. January 2016),Mr.Shit (2. September 2015),MrSuicideSheeep (14. August 2015),Nanashi (31. October 2015),NLHTeddyNLH (30. August 2015),okzide (3. August 2015),OtakuTim (15. January 2016),phtop (6. November 2015),pp95 (25. October 2015),PrinzDarknis (13. December 2015),RaienryuuRgr (29. November 2015),RapidKill (2. October 2015),Reach (21. October 2015),rekiznuh1 (9. August 2015),resistance (8. September 2015),RiPLEYY (28. October 2015),ro.rin (29. November 2015),Sakamoto (21. December 2015),sanjiblubb (Gestern),Sansento (18. February 2016),sebmori (1. August 2015),Seis (13. February 2016),SertiX (8. September 2015),Shinigamiix (18. September 2015),Shinu Luna (21. December 2015),Shirobaka (8. November 2016),Sidias (29. February 2016),Silencio (29. March 2016),Slyer333 (30. March 2016),SONNYxq (12. October 2015),SpiderXL (19. October 2015),Spotix (13. September 2015),ssj3shad (25. October 2015),sudeku (24. October 2015),switcherous (1. November 2015),Sylux (16. September 2015),t0be (28. December 2015),Taiho (23. December 2015),Tana-kun (4. December 2015),TechaNexus (11. November 2015),TheDarkJesus (5. November 2015),The_Iron (15. September 2015),Timberwolf (7. December 2015),tokyodrift (21. September 2015),torusso12 (19. October 2015),treffgarnix (8. November 2015),Tysar (2. October 2015),ultiNaT3 (25. December 2015),unknown5731 (13. January 2016),Virgel (19. July 2016),wirschiii (9. March 2016),Xilence (6. January 2016),Xionic (6. February 2016),Xoon (3. November 2015),Yaranaika (25. August 2015),Yuki+ (18. October 2015),Zekken (27. October 2016),zoe#449 (3. April 2016),_Kazu_ (17. January 2016)

  3. #2
    Uploader Avatar von Filbo11
    Registriert seit
    Jan 2015
    Beiträge
    931
    Punkte
    17.281
    Errungenschaften:
    TomodachisErste Gruppe1 Jahr registriertCreated Album picturesTagger First Class

    AW: Overlord [Jap-Dub][Ger-Sub][720p-8Bit/-10Bit][HDTV] - Chinurarete

    Overlord
    オーバーロード
    Overlord




    Handlung

    Die Geschichte beginnt mit dem beliebten Online-Spiel Yggdrasil, das eines Tages im Jahr 2138 abgeschaltet werden soll. Momonga, der Protagonist, will sich jedoch nicht ausloggen. Daraufhin wird Momonga in einen mächtigen Skelett-Magier verwandelt. Die Welt von Yggdrasil verändert sich daraufhin, sodass NPCs plötzlich Emitionen und ein eigenes Bewusstsein bekommen.
    Ohne Eltern, Freunde oder einen Platz in der Gesellschaft versucht dieser junge Mann, die neue Welt zu erobern, die aus dem Spiel Yggdrasil entstanden ist.


    Format: mp4 [8Bit] / mkv [10Bit]
    Dauer: ca. 24 min
    Größe: ca. 370-470 MB [8Bit] / 410-550 MB [10Bit]
    Sprache: Japanisch
    Untertitel: Deutsch
    Group: [Chinurarete Subs]
    Hoster: Uploaded.net & Share-Online.biz
    kein PW


    Screenshots & MediaInfo

    8Bit
    [Links sind nur für registrierte und aktivierte Nutzer sichtbar. Klicke hier um dich zu registrieren.]

    Code:
    General
    Complete name               : [Chinurarete_Subs]Overlord_Folge_01_8Bit.mp4
    Format                      : MPEG-4
    Format profile              : Base Media
    Codec ID                    : isom
    File size                   : 419 MiB
    Duration                    : 23mn 53s
    Overall bit rate mode       : Variable
    Overall bit rate            : 2 452 Kbps
    Encoded date                : UTC 2015-07-27 19:55:26
    Tagged date                 : UTC 2015-07-27 19:55:26
    
    Video
    ID                          : 1
    Format                      : AVC
    Format/Info                 : Advanced Video Codec
    Format profile              : [email protected]
    Format settings, CABAC      : Yes
    Format settings, ReFrames   : 9 frames
    Codec ID                    : avc1
    Codec ID/Info               : Advanced Video Coding
    Duration                    : 23mn 52s
    Bit rate                    : 2 197 Kbps
    Maximum bit rate            : 13.8 Mbps
    Width                       : 1 280 pixels
    Height                      : 720 pixels
    Display aspect ratio        : 16:9
    Frame rate mode             : Constant
    Frame rate                  : 23.976 fps
    Color space                 : YUV
    Chroma subsampling          : 4:2:0
    Bit depth                   : 8 bits
    Scan type                   : Progressive
    Bits/(Pixel*Frame)          : 0.099
    Stream size                 : 375 MiB (90%)
    Writing library             : x264 core 142 r2409kMod d6b4e63
    Encoding settings           : cabac=1 / ref=9 / deblock=1:0:0 / analyse=0x1:0x131 / me=umh / subme=11 / psy=1 / fade_compensate=0.00 / psy_rd=1.00:0.00 / mixed_ref=1 / me_range=32 / chroma_me=1 / trellis=2 / 8x8dct=0 / cqm=0 / deadzone=21,11 / fast_pskip=0 / chroma_qp_offset=-2 / threads=6 / lookahead_threads=1 / sliced_threads=0 / nr=0 / decimate=0 / interlaced=0 / bluray_compat=0 / constrained_intra=0 / fgo=0 / bframes=16 / b_pyramid=2 / b_adapt=2 / b_bias=0 / direct=3 / weightb=1 / open_gop=0 / weightp=2 / keyint=250 / keyint_min=23 / scenecut=40 / intra_refresh=0 / rc_lookahead=250 / rc=crf / mbtree=1 / crf=16.0000 / qcomp=0.75 / qpmin=0 / qpmax=69 / qpstep=4 / ip_ratio=1.40 / aq=2:0.86
    Encoded date                : UTC 2015-07-27 19:55:26
    Tagged date                 : UTC 2015-07-27 19:55:29
    Color range                 : Limited
    Color primaries             : BT.709
    Transfer characteristics    : BT.709
    Matrix coefficients         : BT.709
    
    Audio
    ID                          : 2
    Format                      : AAC
    Format/Info                 : Advanced Audio Codec
    Format profile              : LC
    Codec ID                    : 40
    Duration                    : 23mn 53s
    Bit rate mode               : Variable
    Bit rate                    : 252 Kbps
    Maximum bit rate            : 261 Kbps
    Channel(s)                  : 2 channels
    Channel positions           : Front: L R
    Sampling rate               : 48.0 KHz
    Compression mode            : Lossy
    Stream size                 : 43.0 MiB (10%)
    Encoded date                : UTC 2015-07-27 19:55:28
    Tagged date                 : UTC 2015-07-27 19:55:29
    
    Menu
    00:00:00.000                : Einleitung
    00:01:44.938                : Opening
    00:03:14.986                : Hauptteil
    00:22:23.000                : Ending


    10Bit
    Code:
    General
    
    Complete name               : [Chinurarete_Subs]Overlord_Folge_01_10Bit.mkv
    Format                      : Matroska
    Format version              : Version 4 / Version 2
    File size                   : 466 MiB
    Duration                    : 23mn 45s
    Overall bit rate            : 2 744 Kbps
    Movie name                  : [Chinurarete Subs] Overlord - Folge 01 - Anfang und Ende
    Encoded date                : UTC 2015-07-28 16:18:54
    Writing application         : mkvmerge v7.0.0 ('Where We Going') 64bit built on Jun  9 2014 15:16:27
    Writing library             : libebml v1.3.0 + libmatroska v1.4.1
    Attachements                : Eboracum + ED KaraokeFX.ttf / Kandal-Bold.ttf / Annexxus_Demov2 + OP KaraokeFX.ttf
    
    Video
    ID                          : 1
    Format                      : AVC
    Format/Info                 : Advanced Video Codec
    Format profile              : High [email protected]
    Format settings, CABAC      : Yes
    Format settings, ReFrames   : 16 frames
    Codec ID                    : V_MPEG4/ISO/AVC
    Duration                    : 23mn 45s
    Width                       : 1 280 pixels
    Height                      : 720 pixels
    Display aspect ratio        : 16:9
    Frame rate mode             : Constant
    Frame rate                  : 23.976 fps
    Color space                 : YUV
    Chroma subsampling          : 4:2:0
    Bit depth                   : 10 bits
    Scan type                   : Progressive
    Title                       : Video
    Writing library             : x264 core 133 r2334 a3ac64b
    Encoding settings           : cabac=1 / ref=16 / deblock=1:1:0 / analyse=0x3:0x133 / me=umh / subme=11 / psy=1 / psy_rd=1.15:0.25 / mixed_ref=1 / me_range=30 / chroma_me=1 / trellis=2 / 8x8dct=1 / cqm=0 / deadzone=21,11 / fast_pskip=0 / chroma_qp_offset=-4 / threads=12 / lookahead_threads=3 / sliced_threads=0 / nr=0 / decimate=0 / interlaced=0 / bluray_compat=0 / constrained_intra=0 / bframes=16 / b_pyramid=2 / b_adapt=2 / b_bias=0 / direct=3 / weightb=1 / open_gop=0 / weightp=2 / keyint=249 / keyint_min=23 / scenecut=40 / intra_refresh=0 / rc_lookahead=249 / rc=crf / mbtree=1 / crf=16.0 / qcomp=0.90 / qpmin=0 / qpmax=81 / qpstep=4 / ip_ratio=1.40 / aq=2:0.80
    Language                    : German
    Default                     : Yes
    Forced                      : Yes
    Color range                 : Limited
    Color primaries             : BT.709
    Transfer characteristics    : BT.709
    Matrix coefficients         : BT.709
    
    Audio
    ID                          : 2
    Format                      : AAC
    Format/Info                 : Advanced Audio Codec
    Format profile              : LC
    Codec ID                    : A_AAC
    Duration                    : 23mn 45s
    Channel(s)                  : 2 channels
    Channel positions           : Front: L R
    Sampling rate               : 48.0 KHz
    Compression mode            : Lossy
    Title                       : Audio
    Language                    : Japanese
    Default                     : Yes
    Forced                      : Yes
    
    Text #1
    ID                          : 3
    Format                      : ASS
    Codec ID                    : S_TEXT/ASS
    Codec ID/Info               : Advanced Sub Station Alpha
    Compression mode            : Lossless
    Title                       : Farbsub
    Language                    : German
    Default                     : Yes
    Forced                      : Yes
    
    Text #2
    ID                          : 4
    Format                      : ASS
    Codec ID                    : S_TEXT/ASS
    Codec ID/Info               : Advanced Sub Station Alpha
    Compression mode            : Lossless
    Title                       : Kein Farbsub
    Language                    : German
    Default                     : No
    Forced                      : No
    
    Menu
    00:00:00.000                : de:Einleitung
    00:01:44.938                : de:Opening
    00:03:14.986                : de:Hauptteil
    00:22:09.995                : de:Ending


    Alle Mirrors untereinander kompatibel
    Folgen einzeln ladbar
    Folge 13/13 online


    Download
    Geschützter Bereich - Bedanke dich beim Poster, um den Bereich sehen zu können
    Hier erfährst Du wie Du Dich bedanken kannst oder werde jetzt Premium Mitglied ab einer Spende von 5€ und erhalte sofortigen Zugriff auf den Downloadbereich!


    Geändert von Filbo11 (12. April 2016 um 10:10 Uhr) Grund: folge 12 & 13 hinzugefügt somit komplett

    [Links sind nur für registrierte und aktivierte Nutzer sichtbar. Klicke hier um dich zu registrieren.]

    Ich wäre allen sehr dankbar, die mir gravierende Fehler in meinen Releases per PN melden

  4. 35 Benutzer sagen Danke:

    Acreen (5. December 2015),Akio (18. November 2015),Akulti (13. January 2016),Antipott (17. September 2015),Artheanos (3. August 2015),bjoegi (8. August 2015),BlackGoldSaw (14. September 2015),Bloodrevenge (22. August 2015),DaaFloH (30. December 2015),DjRayleigh (3. December 2016),Expert2506 (18. December 2015),FantasticZ (3. November 2015),Flint (7. November 2015),Flowbow (1. February 2016),galudo (4. April 2016),Goki.Grokus (8. August 2015),helloplaya (25. October 2016),Himuckel (5. September 2015),janik2009 (30. November 2016),Kortest (14. September 2016),mccharly (4. September 2015),Meistermagier (16. November 2015),midnighter (4. August 2015),NLHTeddyNLH (30. August 2015),pflaffy (13. November 2015),Reach (21. October 2015),sanjiblubb (Gestern),sebmori (6. March 2016),Shirobaka (8. November 2016),SONNYxq (12. October 2015),Sora (30. October 2016),Tekk (5. December 2016),The_Iron (27. November 2016),Tidus18 (9. April 2016),Xidor (28. October 2015)

  5. #3
    Uploader Avatar von Filbo11
    Registriert seit
    Jan 2015
    Beiträge
    931
    Punkte
    17.281
    Errungenschaften:
    TomodachisErste Gruppe1 Jahr registriertCreated Album picturesTagger First Class

    AW: Overlord [Jap-Dub][Ger-Sub][720p-8Bit/-10Bit][HDTV] - Chinurarete

    folge 5 hinzugefügt

    [Links sind nur für registrierte und aktivierte Nutzer sichtbar. Klicke hier um dich zu registrieren.]

    Ich wäre allen sehr dankbar, die mir gravierende Fehler in meinen Releases per PN melden

  6. #4
    Uploader Avatar von Filbo11
    Registriert seit
    Jan 2015
    Beiträge
    931
    Punkte
    17.281
    Errungenschaften:
    TomodachisErste Gruppe1 Jahr registriertCreated Album picturesTagger First Class

    AW: Overlord [Jap-Dub][Ger-Sub][720p-8Bit/-10Bit][HDTV] - Chinurarete

    folge 6 hinzugefügt

    [Links sind nur für registrierte und aktivierte Nutzer sichtbar. Klicke hier um dich zu registrieren.]

    Ich wäre allen sehr dankbar, die mir gravierende Fehler in meinen Releases per PN melden

  7. #5
    Uploader Avatar von Filbo11
    Registriert seit
    Jan 2015
    Beiträge
    931
    Punkte
    17.281
    Errungenschaften:
    TomodachisErste Gruppe1 Jahr registriertCreated Album picturesTagger First Class

    AW: Overlord [Jap-Dub][Ger-Sub][720p-8Bit/-10Bit][HDTV] - Chinurarete

    folge 7 hinzugefügt

    [Links sind nur für registrierte und aktivierte Nutzer sichtbar. Klicke hier um dich zu registrieren.]

    Ich wäre allen sehr dankbar, die mir gravierende Fehler in meinen Releases per PN melden

  8. #6
    Uploader Avatar von Filbo11
    Registriert seit
    Jan 2015
    Beiträge
    931
    Punkte
    17.281
    Errungenschaften:
    TomodachisErste Gruppe1 Jahr registriertCreated Album picturesTagger First Class

    AW: Overlord [Jap-Dub][Ger-Sub][720p-8Bit/-10Bit][HDTV] - Chinurarete

    folge 8 hinzugefügt

    [Links sind nur für registrierte und aktivierte Nutzer sichtbar. Klicke hier um dich zu registrieren.]

    Ich wäre allen sehr dankbar, die mir gravierende Fehler in meinen Releases per PN melden

  9. #7
    Uploader Avatar von Filbo11
    Registriert seit
    Jan 2015
    Beiträge
    931
    Punkte
    17.281
    Errungenschaften:
    TomodachisErste Gruppe1 Jahr registriertCreated Album picturesTagger First Class

    AW: Overlord [Jap-Dub][Ger-Sub][720p-8Bit/-10Bit][HDTV] - Chinurarete

    folge 9 hinzugefügt

    [Links sind nur für registrierte und aktivierte Nutzer sichtbar. Klicke hier um dich zu registrieren.]

    Ich wäre allen sehr dankbar, die mir gravierende Fehler in meinen Releases per PN melden

  10. #8
    Uploader Avatar von Filbo11
    Registriert seit
    Jan 2015
    Beiträge
    931
    Punkte
    17.281
    Errungenschaften:
    TomodachisErste Gruppe1 Jahr registriertCreated Album picturesTagger First Class

    AW: Overlord [Jap-Dub][Ger-Sub][720p-8Bit/-10Bit][HDTV] - Chinurarete

    folge 10 & 11 hinzugefügt

    folge 10 8 Bit folgt in kürze

    [Links sind nur für registrierte und aktivierte Nutzer sichtbar. Klicke hier um dich zu registrieren.]

    Ich wäre allen sehr dankbar, die mir gravierende Fehler in meinen Releases per PN melden

  11. #9
    Uploader Avatar von Filbo11
    Registriert seit
    Jan 2015
    Beiträge
    931
    Punkte
    17.281
    Errungenschaften:
    TomodachisErste Gruppe1 Jahr registriertCreated Album picturesTagger First Class

    AW: Overlord [Jap-Dub][Ger-Sub][720p][8Bit/10Bit][HDTV] - Chinurarete-Subs

    folge 12 & 13 hinzugefügt somit komplett

    [Links sind nur für registrierte und aktivierte Nutzer sichtbar. Klicke hier um dich zu registrieren.]

    Ich wäre allen sehr dankbar, die mir gravierende Fehler in meinen Releases per PN melden

  12. 1 Benutzer sagt Danke:

    Miriweth (10. May 2016)

Lesezeichen

Berechtigungen

  • Neue Themen erstellen: Nein
  • Themen beantworten: Nein
  • Anhänge hochladen: Nein
  • Beiträge bearbeiten: Nein
  •  

1 2 3 4 5 6 7 8 9 10 11 12 13 14 15 16 17 18 19 20 21 22 23 24 25 26 27 28 29 30 31 32 33 34 35 36 37 38 39 40 41 42 43 44 45 46 47 48 49 50 51 52 53 54 55 56 57 58 59 60 61 62 63 64 65 66 67 68 69 70 71 72 73 74 75 76 77 78 79 80 81 82 83 84 85 86 87 88 89 90 91 92 93 94 95 96 97 98 99 100 101 102 103 104 105 106 107 108 109 110 111 112 113 114 115 116 117 118 119 120 121 122 123 124 125 126 127 128 129 130 131 132 133 134 135 136 137 138 139 140 141 142 143 144 145 146 147 148 149 150 151 152 153 154 155 156 157 158