Ergebnis 1 bis 1 von 1

Thema: Overlord [Laufend][Jap-Dub][Ger-Sub][720p/1080p][BluRay] - MS

Dieser Thread wurde noch nicht bewertet. Bewerte ihn doch, wenn er dir gefällt!
  1. #1
    Kami-sama Avatar von galudo
    Registriert seit
    Mar 2015
    Beiträge
    1.369
    Punkte
    25.903
    Errungenschaften:
    TomodachisTagger ProfiHyperaktivSenpaiGang Leader

    Overlord [Laufend][Jap-Dub][Ger-Sub][720p/1080p][BluRay] - MS

    Overlord
    オーバーロード
    Over Lord



    Kurzbeschreibung
    Die Geschichte beginnt mit dem beliebten Online-Spiel Yggdrasil, das eines Tages im Jahr 2138 abgeschaltet werden soll.
    Momonga, der Protagonist, will sich jedoch nicht ausloggen. Daraufhin wird Momonga in einen mächtigen Skelett-Magier verwandelt. Die Welt von Yggdrasil verändert sich daraufhin, sodass NPCs plötzlich Emitionen und ein eigenes Bewusstsein bekommen.
    Ohne Eltern, Freunde oder einen Platz in der Gesellschaft versucht dieser junge Mann, die neue Welt zu erobern, die aus dem Spiel Yggdrasil entstanden ist.
    Format: MP4
    Sprache: Japanisch
    Untertitel: Deutsch (HardSub)
    Genre: Abenteuer, Action, Fantasy, Komödie, Magie, Mystery, Romanze, Sci-Fi
    Größe bei 720p: ~ 400 MB pro Folge | Gesamtgröße: 0,80 GB
    Größe bei 1080p: ~ 900 MB pro Folge | Gesamtgröße: 1,80 GB
    Dauer: ~ 23 Minuten
    Jahr: 2015
    Video: 720p & 1080p
    Source: BluRay
    Subgroup / Releasegroup: Matana-Studio

    Hoster: Share-Online | Uploaded
    Passwort: siehe unten
    Onlinestatus: HD|FHD


    Datei-Info
    MediaInfo
    720p
    Code:
    General
    Complete name                  : [Matana_Studio]_Overlord_-_01_[BD_720p_AAC]_[FD4DB338].mp4
    Format                         : MPEG-4
    Format profile                 : Base Media
    Codec ID                       : isom
    File size                      : 414 MiB
    Duration                       : 24mn 13s
    Overall bit rate               : 2 387 Kbps
    Encoded date                   : UTC 2016-04-23 21:27:54
    Tagged date                    : UTC 2016-04-23 21:27:54
    
    Video
    ID                             : 1
    Format                         : AVC
    Format/Info                    : Advanced Video Codec
    Format profile                 : [email protected]
    Format settings, CABAC         : Yes
    Format settings, ReFrames      : 16 frames
    Codec ID                       : avc1
    Codec ID/Info                  : Advanced Video Coding
    Duration                       : 24mn 13s
    Bit rate                       : 2 257 Kbps
    Maximum bit rate               : 9 832 Kbps
    Width                          : 1 280 pixels
    Height                         : 720 pixels
    Display aspect ratio           : 16:9
    Frame rate mode                : Constant
    Frame rate                     : 23.976 fps
    Color space                    : YUV
    Chroma subsampling             : 4:2:0
    Bit depth                      : 8 bits
    Scan type                      : Progressive
    Bits/(Pixel*Frame)             : 0.102
    Stream size                    : 391 MiB (95%)
    Writing library                : x264 core 148 r2638 7599210
    Encoding settings              : cabac=1 / ref=16 / deblock=1:0:0 / analyse=0x3:0x133 / me=tesa / subme=11 / psy=1 / psy_rd=1.00:0.00 / mixed_ref=1 / me_range=24 / chroma_me=1 / trellis=2 / 8x8dct=1 / cqm=0 / deadzone=21,11 / fast_pskip=0 / chroma_qp_offset=-2 / threads=12 / lookahead_threads=3 / sliced_threads=0 / nr=0 / decimate=1 / interlaced=0 / bluray_compat=0 / constrained_intra=0 / bframes=16 / b_pyramid=2 / b_adapt=2 / b_bias=0 / direct=3 / weightb=1 / open_gop=0 / weightp=2 / keyint=240 / keyint_min=23 / scenecut=40 / intra_refresh=0 / rc_lookahead=60 / rc=crf / mbtree=1 / crf=16.0 / qcomp=0.60 / qpmin=0 / qpmax=69 / qpstep=4 / ip_ratio=1.40 / aq=1:1.00
    Encoded date                   : UTC 2016-04-23 21:27:54
    Tagged date                    : UTC 2016-04-23 21:29:45
    
    Audio
    ID                             : 2
    Format                         : MPEG Audio
    Format version                 : Version 1
    Format profile                 : Layer 3
    Mode                           : Joint stereo
    Mode extension                 : MS Stereo
    Codec ID                       : .mp3
    Duration                       : 24mn 13s
    Bit rate mode                  : Constant
    Bit rate                       : 128 Kbps
    Maximum bit rate               : 132 Kbps
    Channel(s)                     : 2 channels
    Sampling rate                  : 48.0 KHz
    Compression mode               : Lossy
    Stream size                    : 22.2 MiB (5%)
    Writing library                : LAME3.99r
    Encoding settings              : -m j -V 4 -q 2 -lowpass 17 -b 128
    Encoded date                   : UTC 2016-04-23 21:29:43
    Tagged date                    : UTC 2016-04-23 21:29:45
    1080p
    Code:
    General
    Complete name                  : [Matana_Studio]_Overlord_-_01_[BD_1080p]_[85F160CA].mp4
    Format                         : MPEG-4
    Format profile                 : Base Media
    Codec ID                       : isom
    File size                      : 983 MiB
    Duration                       : 24mn 13s
    Overall bit rate               : 5 674 Kbps
    Encoded date                   : UTC 2016-05-02 15:37:34
    Tagged date                    : UTC 2016-05-02 15:37:34
    
    Video
    ID                             : 1
    Format                         : AVC
    Format/Info                    : Advanced Video Codec
    Format profile                 : [email protected]
    Format settings, CABAC         : Yes
    Format settings, ReFrames      : 16 frames
    Codec ID                       : avc1
    Codec ID/Info                  : Advanced Video Coding
    Duration                       : 24mn 13s
    Bit rate                       : 5 544 Kbps
    Maximum bit rate               : 21.2 Mbps
    Width                          : 1 920 pixels
    Height                         : 1 080 pixels
    Display aspect ratio           : 16:9
    Frame rate mode                : Constant
    Frame rate                     : 23.976 fps
    Color space                    : YUV
    Chroma subsampling             : 4:2:0
    Bit depth                      : 8 bits
    Scan type                      : Progressive
    Bits/(Pixel*Frame)             : 0.112
    Stream size                    : 961 MiB (98%)
    Writing library                : x264 core 148 r2692 64f4e24
    Encoding settings              : cabac=1 / ref=16 / deblock=1:0:0 / analyse=0x3:0x133 / me=tesa / subme=11 / psy=1 / psy_rd=1.00:0.00 / mixed_ref=1 / me_range=24 / chroma_me=1 / trellis=2 / 8x8dct=1 / cqm=0 / deadzone=21,11 / fast_pskip=0 / chroma_qp_offset=-2 / threads=12 / lookahead_threads=3 / sliced_threads=0 / nr=0 / decimate=1 / interlaced=0 / bluray_compat=0 / constrained_intra=0 / bframes=16 / b_pyramid=2 / b_adapt=2 / b_bias=0 / direct=3 / weightb=1 / open_gop=0 / weightp=2 / keyint=240 / keyint_min=23 / scenecut=40 / intra_refresh=0 / rc_lookahead=60 / rc=crf / mbtree=1 / crf=16.0 / qcomp=0.60 / qpmin=0 / qpmax=69 / qpstep=4 / ip_ratio=1.40 / aq=1:1.00
    Encoded date                   : UTC 2016-05-02 15:37:34
    Tagged date                    : UTC 2016-05-02 15:37:44
    
    Audio
    ID                             : 2
    Format                         : MPEG Audio
    Format version                 : Version 1
    Format profile                 : Layer 3
    Mode                           : Joint stereo
    Mode extension                 : MS Stereo
    Codec ID                       : .mp3
    Duration                       : 24mn 13s
    Bit rate mode                  : Constant
    Bit rate                       : 128 Kbps
    Maximum bit rate               : 132 Kbps
    Channel(s)                     : 2 channels
    Sampling rate                  : 48.0 KHz
    Compression mode               : Lossy
    Stream size                    : 22.2 MiB (2%)
    Writing library                : LAME3.99r
    Encoding settings              : -m j -V 4 -q 2 -lowpass 17 -b 128
    Encoded date                   : UTC 2016-05-02 15:37:44
    Tagged date                    : UTC 2016-05-02 15:37:44


    Folgen 02 / 13 online
    Folgen einzeln ladbar



    || Download & Passwort ||


    Geschützter Bereich - Bedanke dich beim Poster, um den Bereich sehen zu können
    Hier erfährst Du wie Du Dich bedanken kannst oder werde jetzt Premium Mitglied ab einer Spende von 5€ und erhalte sofortigen Zugriff auf den Downloadbereich!

    Overlord + Specials Komplett:
    [Links sind nur für registrierte und aktivierte Nutzer sichtbar. Klicke hier um dich zu registrieren.]
    Geändert von galudo (12. October 2016 um 18:28 Uhr) Grund: 1080p Version hinzugefügt
    SUPPORT UND REUP ANFRAGEN NUR >> [Links sind nur für registrierte und aktivierte Nutzer sichtbar. Klicke hier um dich zu registrieren.] <<
    Bitte IMMER den Thread-Link mitschicken.

  2. 12 Benutzer sagen Danke:

    Buze (17. July 2016),Chaosdragon (18. May 2016),DjRayleigh (Gestern),Gelex (24. July 2016),Kristero (13. May 2016),Marcs117 (30. April 2016),meyer (28. April 2016),Miriweth (2. August 2016),Pitou (10. May 2016),SONNYxq (28. April 2016),Steinauge (18. July 2016),Zap (4. November 2016)

Stichworte

Lesezeichen

Berechtigungen

  • Neue Themen erstellen: Nein
  • Themen beantworten: Nein
  • Anhänge hochladen: Nein
  • Beiträge bearbeiten: Nein
  •  

1 2 3 4 5 6 7 8 9 10 11 12 13 14 15 16 17 18 19 20 21 22 23 24 25 26 27 28 29 30 31 32 33 34 35 36 37 38 39 40 41 42 43 44 45 46 47 48 49 50 51 52 53 54 55 56 57 58 59 60 61 62 63 64 65 66 67 68 69 70 71 72 73 74 75 76 77 78 79 80 81 82 83 84 85 86 87 88 89 90 91 92 93 94 95 96 97 98 99 100 101 102 103 104 105 106 107 108 109 110 111 112 113 114 115 116 117 118 119 120 121 122 123 124 125 126 127 128 129 130 131 132 133 134 135 136 137 138 139 140 141 142 143 144 145 146 147 148 149 150 151 152 153 154 155 156 157 158