Ergebnis 1 bis 1 von 1

Thema: Owari no Seraph: Kyuuketsuki Shahar [Jap-Dub][Ger-Sub][480p-8Bit/10Bit][DVD] - SHFS

Dieser Thread wurde noch nicht bewertet. Bewerte ihn doch, wenn er dir gefällt!
  1. #1
    Kami-sama Avatar von galudo
    Registriert seit
    Mar 2015
    Beiträge
    1.371
    Punkte
    26.064
    Errungenschaften:
    TomodachisTagger ProfiHyperaktivSenpaiGang Leader

    Owari no Seraph: Kyuuketsuki Shahar [Jap-Dub][Ger-Sub][480p-8Bit/10Bit][DVD] - SHFS

    Owari no Seraph: Kyuuketsuki Shahar
    Owari no Seraph: Vampire Shahar
    Owari no Seraph OVA
    Owari no Seraph OAD



    Kurzbeschreibung
    Das Team erhält einen neuen Auftrag von Guren, sie sollen ein menschliches Mädchen mit dem Namen Riko vor einem mysteriösen Vampir, der Shahar heißt, retten und zu ihrer Familie zurückbringen. Als sie Shahar finden, tauchen unverhofft Ferid und Crowley auf.
    Kann Yuu das Mädchen retten?
    Format: MKV
    Sprache: Japanisch
    Untertitel: Deutsch
    Genre: Action, Drama, Shounen, Vampire
    Größe bei 8Bit: ~ 254 MB
    Größe bei 10Bit: ~ 195 MB
    Dauer: ~ 23 Minuten
    Jahr: 03.11.2015
    Video: 480p
    Source: DVD
    Subgroup / Releasegroup: Shiroi-Fansubs

    Hoster: Share-Online | Uploaded
    Passwort: siehe unten
    Onlinestatus: 8bit|10bit


    Datei-Info
    MediaInfo
    8Bit
    Code:
    General
    Unique ID                      : 239217359146902507785379021403574028131 (0xB3F79667B3046F2886C670A4E0D0C763)
    Complete name                  : [SHFS] Owari no Seraph - OAD (DVD, 8bit, x264, AC3, 480p)[A06702A3].mkv
    Format                         : Matroska
    Format version                 : Version 4 / Version 2
    File size                      : 255 MiB
    Duration                       : 23mn 12s
    Overall bit rate               : 1 533 Kbps
    Movie name                     : [SHFS] Owari no Seraph - OAD (DVD, 8bit, x264, AC3, 480p) German Sub
    Encoded date                   : UTC 2016-06-02 18:51:33
    Writing application            : mkvmerge v8.9.0 ('Father Daughter') 64bit
    Writing library                : libebml v1.3.3 + libmatroska v1.4.4
    DURATION                       : 00:23:12.832000000
    NUMBER_OF_FRAMES               : 43526
    NUMBER_OF_BYTES                : 66855936
    _STATISTICS_WRITING_APP        : mkvmerge v8.9.0 ('Father Daughter') 64bit
    _STATISTICS_WRITING_DATE_UTC   : 2016-06-02 18:51:33
    _STATISTICS_TAGS               : BPS DURATION NUMBER_OF_FRAMES NUMBER_OF_BYTES
    
    Video
    ID                             : 1
    Format                         : AVC
    Format/Info                    : Advanced Video Codec
    Format profile                 : [email protected]
    Format settings, CABAC         : Yes
    Format settings, ReFrames      : 8 frames
    Codec ID                       : V_MPEG4/ISO/AVC
    Duration                       : 23mn 12s
    Bit rate                       : 1 119 Kbps
    Width                          : 848 pixels
    Height                         : 480 pixels
    Display aspect ratio           : 16:9
    Frame rate mode                : Constant
    Frame rate                     : 19.182 fps
    Original frame rate            : 19.181 fps
    Color space                    : YUV
    Chroma subsampling             : 4:2:0
    Bit depth                      : 8 bits
    Scan type                      : Progressive
    Bits/(Pixel*Frame)             : 0.143
    Stream size                    : 186 MiB (73%)
    Writing library                : x264 core 146 r2538kMod 121396c
    Encoding settings              : cabac=1 / ref=8 / deblock=1:-1:-2 / analyse=0x3:0x113 / me=umh / subme=10 / psy=1 / fade_compensate=0.00 / psy_rd=0.80:0.10 / mixed_ref=0 / me_range=32 / chroma_me=1 / trellis=2 / 8x8dct=1 / cqm=0 / deadzone=21,11 / fast_pskip=1 / chroma_qp_offset=-3 / threads=3 / lookahead_threads=1 / sliced_threads=0 / nr=0 / decimate=1 / interlaced=0 / bluray_compat=0 / constrained_intra=0 / fgo=0 / bframes=16 / b_pyramid=2 / b_adapt=1 / b_bias=0 / direct=1 / weightb=1 / open_gop=0 / weightp=1 / keyint=240 / keyint_min=19 / scenecut=40 / intra_refresh=0 / rc_lookahead=75 / rc=crf / mbtree=1 / crf=15.5000 / qcomp=0.60 / qpmin=0 / qpmax=69 / qpstep=4 / ip_ratio=1.40 / aq=2:0.80
    Language                       : English
    Default                        : Yes
    Forced                         : No
    DURATION                       : 00:23:12.798000000
    NUMBER_OF_FRAMES               : 26715
    NUMBER_OF_BYTES                : 199868997
    _STATISTICS_WRITING_APP        : mkvmerge v8.9.0 ('Father Daughter') 64bit
    _STATISTICS_WRITING_DATE_UTC   : 2016-06-02 18:51:33
    _STATISTICS_TAGS               : BPS DURATION NUMBER_OF_FRAMES NUMBER_OF_BYTES
    
    Audio
    ID                             : 2
    Format                         : AC-3
    Format/Info                    : Audio Coding 3
    Mode extension                 : CM (complete main)
    Format settings, Endianness    : Big
    Codec ID                       : A_AC3
    Duration                       : 23mn 12s
    Bit rate mode                  : Constant
    Bit rate                       : 384 Kbps
    Channel(s)                     : 2 channels
    Channel positions              : Front: L R
    Sampling rate                  : 48.0 KHz
    Compression mode               : Lossy
    Stream size                    : 63.8 MiB (25%)
    Title                          : Japanisch
    Language                       : Japanese
    Default                        : Yes
    Forced                         : No
    
    Menu
    00:00:00.000                   : :Vorspann
    00:00:29.143                   : :Teil 1
    00:10:11.548                   : :Teil 2
    00:20:44.055                   : :Ending
    00:22:06.742                   : :Abspann
    10Bit
    Code:
    General
    Unique ID                      : 171268505605812569979998180782265948904 (0x80D91D45E389B221BBC120E22DA15AE8)
    Complete name                  : [SHFS] Owari no Seraph - OAD (DVD, 10bit, x264, AC3, 480p)[A6BC243E].mkv
    Format                         : Matroska
    Format version                 : Version 4 / Version 2
    File size                      : 195 MiB
    Duration                       : 23mn 12s
    Overall bit rate               : 1 176 Kbps
    Movie name                     : [SHFS] Owari no Seraph - OAD (DVD, 10bit, x264, AC3, 480p) German Sub
    Encoded date                   : UTC 2016-06-02 23:00:35
    Writing application            : mkvmerge v8.9.0 ('Father Daughter') 64bit
    Writing library                : libebml v1.3.3 + libmatroska v1.4.4
    Attachements                   : ArnoPro-BoldDisplay.otf / arabtype.ttf
    DURATION                       : 00:23:12.832000000
    NUMBER_OF_FRAMES               : 43526
    NUMBER_OF_BYTES                : 66855936
    _STATISTICS_WRITING_APP        : mkvmerge v8.9.0 ('Father Daughter') 64bit
    _STATISTICS_WRITING_DATE_UTC   : 2016-06-02 23:00:35
    _STATISTICS_TAGS               : BPS DURATION NUMBER_OF_FRAMES NUMBER_OF_BYTES
    
    Video
    ID                             : 1
    Format                         : AVC
    Format/Info                    : Advanced Video Codec
    Format profile                 : High [email protected]
    Format settings, CABAC         : Yes
    Format settings, ReFrames      : 16 frames
    Codec ID                       : V_MPEG4/ISO/AVC
    Duration                       : 23mn 12s
    Bit rate                       : 768 Kbps
    Width                          : 848 pixels
    Height                         : 480 pixels
    Display aspect ratio           : 16:9
    Frame rate mode                : Constant
    Frame rate                     : 19.182 fps
    Original frame rate            : 19.181 fps
    Color space                    : YUV
    Chroma subsampling             : 4:2:0
    Bit depth                      : 10 bits
    Scan type                      : Progressive
    Bits/(Pixel*Frame)             : 0.098
    Stream size                    : 128 MiB (65%)
    Writing library                : x264 core 148 r2665+53 6629127 t_mod_Custom [[email protected] X86_64]
    Encoding settings              : cabac=1 / ref=16 / deblock=1:-1:-1 / analyse=0x3:0x113 / me=umh / subme=10 / psy=1 / fade_compensate=0.70 / psy_rd=0.70:0.10 / mixed_ref=0 / me_range=32 / chroma_me=1 / trellis=2 / 8x8dct=1 / cqm=0 / deadzone=21,11 / fast_pskip=0 / chroma_qp_offset=-3 / threads=3 / lookahead_threads=1 / sliced_threads=0 / nr=0 / decimate=0 / interlaced=0 / bluray_compat=0 / constrained_intra=0 / fgo=0 / bframes=16 / b_pyramid=2 / b_adapt=2 / b_bias=0 / direct=1 / weightb=1 / open_gop=0 / weightp=1 / keyint=250 / keyint_min=25 / scenecut=40 / intra_refresh=0 / rc_lookahead=60 / rc=crf / mbtree=1 / crf=16.5000 / qcomp=0.70 / qpmin=0:0:0 / qpmax=81:81:81 / qpstep=4 / ip_ratio=1.40 / aq=3:0.80 / aq-sensitivity=10.00 / aq-factor=1.00:1.00:1.00 / aq2=0 / aq3=0
    Language                       : Japanese
    Default                        : Yes
    Forced                         : No
    Color range                    : Limited
    Matrix coefficients            : BT.709
    DURATION                       : 00:23:12.798000000
    NUMBER_OF_FRAMES               : 26715
    NUMBER_OF_BYTES                : 136652372
    _STATISTICS_WRITING_APP        : mkvmerge v8.9.0 ('Father Daughter') 64bit
    _STATISTICS_WRITING_DATE_UTC   : 2016-06-02 23:00:35
    _STATISTICS_TAGS               : BPS DURATION NUMBER_OF_FRAMES NUMBER_OF_BYTES
    
    Audio
    ID                             : 2
    Format                         : AC-3
    Format/Info                    : Audio Coding 3
    Mode extension                 : CM (complete main)
    Format settings, Endianness    : Big
    Codec ID                       : A_AC3
    Duration                       : 23mn 12s
    Bit rate mode                  : Constant
    Bit rate                       : 384 Kbps
    Channel(s)                     : 2 channels
    Channel positions              : Front: L R
    Sampling rate                  : 48.0 KHz
    Compression mode               : Lossy
    Stream size                    : 63.8 MiB (33%)
    Title                          : Japanisch
    Language                       : Japanese
    Default                        : Yes
    Forced                         : No
    
    Text
    ID                             : 3
    Format                         : ASS
    Codec ID                       : S_TEXT/ASS
    Codec ID/Info                  : Advanced Sub Station Alpha
    Compression mode               : Lossless
    Title                          : Deutsch
    Language                       : German
    Default                        : Yes
    Forced                         : No
    
    Menu
    00:00:00.000                   : :Vorspann
    00:00:29.143                   : :Teil 1
    00:10:11.548                   : :Teil 2
    00:20:44.055                   : :Ending
    00:22:06.742                   : :Abspann


    OAD 01 / 01 online
    8Bit sowie 10Bit



    || Download & Passwort ||


    Geschützter Bereich - Bedanke dich beim Poster, um den Bereich sehen zu können
    Hier erfährst Du wie Du Dich bedanken kannst oder werde jetzt Premium Mitglied ab einer Spende von 5€ und erhalte sofortigen Zugriff auf den Downloadbereich!

    Geändert von galudo (12. October 2016 um 18:24 Uhr)
    SUPPORT UND REUP ANFRAGEN NUR >> [Links sind nur für registrierte und aktivierte Nutzer sichtbar. Klicke hier um dich zu registrieren.] <<
    Bitte IMMER den Thread-Link mitschicken.

  2. 10 Benutzer sagen Danke:

    Belbo (22. August 2016),heikobaer (10. July 2016),Kirdock (6. June 2016),KrachbumAlex (10. June 2016),Lautrerbomber (23. August 2016),Magicmanx (5. September 2016),midnighter (10. September 2016),rinnegan93 (23. November 2016),Suigetsu (6. June 2016),Virgel (14. July 2016)

Stichworte

Lesezeichen

Berechtigungen

  • Neue Themen erstellen: Nein
  • Themen beantworten: Nein
  • Anhänge hochladen: Nein
  • Beiträge bearbeiten: Nein
  •  

1 2 3 4 5 6 7 8 9 10 11 12 13 14 15 16 17 18 19 20 21 22 23 24 25 26 27 28 29 30 31 32 33 34 35 36 37 38 39 40 41 42 43 44 45 46 47 48 49 50 51 52 53 54 55 56 57 58 59 60 61 62 63 64 65 66 67 68 69 70 71 72 73 74 75 76 77 78 79 80 81 82 83 84 85 86 87 88 89 90 91 92 93 94 95 96 97 98 99 100 101 102 103 104 105 106 107 108 109 110 111 112 113 114 115 116 117 118 119 120 121 122 123 124 125 126 127 128 129 130 131 132 133 134 135 136 137 138 139 140 141 142 143 144 145 146 147 148 149 150 151 152 153 154 155 156 157 158