Ergebnis 1 bis 1 von 1

Thema: Persona: Trinity Soul [Jap-Dub][Ger-Sub][480p][DVDRip]

Dieser Thread wurde noch nicht bewertet. Bewerte ihn doch, wenn er dir gefällt!
  1. #1
    United we Stand Avatar von 00Ryuji00
    Registriert seit
    Oct 2012
    Beiträge
    3.896
    Punkte
    99.519
    Errungenschaften:
    TomodachisGang LeaderHikikomoriTagger Amateur50000 Erfahrungspunkte

    Persona: Trinity Soul [Jap-Dub][Ger-Sub][480p][DVDRip]


    Persona: Trinity Soul
    ペルソナ トリニティ・ソウル
    Shin Megami Tensei: Persona - Trinity Soul






    Kurzbeschreibung:
    Zitat Zitat von AniSearch.com
    Nachdem sie zehn Jahre getrennt gelebt haben, ziehen der Highschool-Schüler Shin Kanzato und sein kleiner Bruder Jun bei ihrem großen Bruder Ryō, Polizeichef von Ayanagi City, ein. Die Stadt wird zu dieser Zeit von mysteriösen Vorfällen erschüttert, wie das unerklärliche Verschwinden der Crew eines U-Bootes, das erneute Auftreten des Apathie-Syndroms nach 10 Jahren, das die Menschen in einer Art seelenlosen Zustand verbleiben lässt sowie Morde, bei denen das Innere der Opfer nach außen gekehrt wird. Ryō ermittelt in diesen Fällen, hüllt sich aber über seine Erkenntnisse, sowohl gegenüber seinen Untergebenen, als auch gegenüber seinen Brüdern, in Schweigen. Shin versteht die kühle ablehnende Haltung seines Bruders nicht, bis er eines Tages selbst in diese Vorfälle verwickelt wird und sein eigener „Persona“ erwacht.


    Spieldauer: 24min
    Genre: Drama
    Nebengenres: Action, Drama, Krimi, Mystery, Männlich, Psychodrama, Sci-Fi
    Jahr: 2008
    Sprache: Japanisch
    Untertitel: Deutsch
    Größe: ~200 MB pro Folge
    Episodenanzahl: 26/26
    Format: mp4
    Auflösung: 480p (4:3)
    Videocodec: x264 (AVC)
    Audiocodec: AAC
    Releasegruppe: AnFs & C-N
    Hoster: Share-Online, Uploaded


    MediaInfo
    Code:
    
    Format                                   : MPEG-4
    Format profile                           : Base Media
    Codec ID                                 : isom
    File size                                : 202 MiB
    Duration                                 : 23mn 41s
    Overall bit rate mode                    : Variable
    Overall bit rate                         : 1 194 Kbps
    Encoded date                             : UTC 2011-01-30 18:53:06
    Tagged date                              : UTC 2011-01-30 18:53:06
    
    Video
    ID                                       : 1
    Format                                   : AVC
    Format/Info                              : Advanced Video Codec
    Format profile                           : [email protected]
    Format settings, CABAC                   : Yes
    Format settings, ReFrames                : 12 frames
    Codec ID                                 : avc1
    Codec ID/Info                            : Advanced Video Coding
    Duration                                 : 23mn 41s
    Bit rate                                 : 1 098 Kbps
    Maximum bit rate                         : 6 233 Kbps
    Width                                    : 848 pixels
    Height                                   : 480 pixels
    Display aspect ratio                     : 16:9
    Frame rate mode                          : Constant
    Frame rate                               : 23.976 fps
    Color space                              : YUV
    Chroma subsampling                       : 4:2:0
    Bit depth                                : 8 bits
    Scan type                                : Progressive
    Bits/(Pixel*Frame)                       : 0.113
    Stream size                              : 186 MiB (92%)
    Title                                    : [AnFs & CN] Persona
    Writing library                          : x264 core 113 r1882 f6d0c95
    Encoding settings                        : cabac=1 / ref=12 / deblock=1:1:1 / analyse=0x3:0x133 / me=umh / subme=10 / psy=1 / psy_rd=0.90:0.00 / mixed_ref=1 / me_range=32 / chroma_me=1 / trellis=2 / 8x8dct=1 / cqm=0 / deadzone=21,11 / fast_pskip=0 / chroma_qp_offset=-2 / threads=6 / sliced_threads=0 / nr=0 / decimate=1 / interlaced=0 / constrained_intra=0 / bframes=5 / b_pyramid=2 / b_adapt=2 / b_bias=0 / direct=3 / weightb=1 / open_gop=0 / weightp=2 / keyint=250 / keyint_min=23 / scenecut=40 / intra_refresh=0 / rc_lookahead=120 / rc=crf / mbtree=1 / crf=15.0 / qcomp=0.60 / qpmin=0 / qpmax=69 / qpstep=6 / ip_ratio=1.40 / aq=1:0.60
    Encoded date                             : UTC 2011-01-29 20:40:16
    Tagged date                              : UTC 2011-01-30 18:53:08
    
    Audio
    ID                                       : 2
    Format                                   : AAC
    Format/Info                              : Advanced Audio Codec
    Format profile                           : LC
    Codec ID                                 : 40
    Duration                                 : 23mn 41s
    Bit rate mode                            : Variable
    Bit rate                                 : 92.1 Kbps
    Maximum bit rate                         : 115 Kbps
    Channel count                            : 2 channels
    Channel positions                        : Front: L R
    Sampling rate                            : 48.0 KHz
    Compression mode                         : Lossy
    Stream size                              : 15.6 MiB (8%)
    Language                                 : Japanese
    Encoded date                             : UTC 2011-01-30 18:53:08
    Tagged date                              : UTC 2011-01-30 18:53:08
    
    





    Geschützter Bereich - Bedanke dich beim Poster, um den Bereich sehen zu können
    Hier erfährst Du wie Du Dich bedanken kannst oder werde jetzt Premium Mitglied ab einer Spende von 5€ und erhalte sofortigen Zugriff auf den Downloadbereich!

    !!!Alle Anliegen bezüglich Uploads werden nur mit direktem Threadlink zum Angebot bearbeitet!!!

    Re-Uploadanfragen nur per PN - Ihr könnt mir auch Listen schicken

    Re-Uploads erfolgen meist innerhalb 24h, kann aber auch bis zu 7 Tage dauern

    [Links sind nur für registrierte und aktivierte Nutzer sichtbar. Klicke hier um dich zu registrieren.] | [Links sind nur für registrierte und aktivierte Nutzer sichtbar. Klicke hier um dich zu registrieren.] | >[Links sind nur für registrierte und aktivierte Nutzer sichtbar. Klicke hier um dich zu registrieren.]<
    [Links sind nur für registrierte und aktivierte Nutzer sichtbar. Klicke hier um dich zu registrieren.]

  2. 18 Benutzer sagen Danke:

    Aizen-Sama (16. November 2016),Akio (11. February 2016),Aluaran (10. August 2015),BANDIMO (8. October 2015),Besen 48 (27. August 2015),classius (11. September 2015),eckschrank (18. June 2016),FrozZenOnE (15. October 2015),galudo (9. September 2015),Holzmodem (23. October 2016),Lautrerbomber (1. December 2015),midnighter (13. August 2015),PrinzDarknis (14. December 2015),Rena_Chan (10. August 2015),SantaKlaus (10. December 2015),Skully_88 (19. October 2016),VNRG (19. January 2016),wire1257 (22. February 2016)

Lesezeichen

Berechtigungen

  • Neue Themen erstellen: Nein
  • Themen beantworten: Nein
  • Anhänge hochladen: Nein
  • Beiträge bearbeiten: Nein
  •  

1 2 3 4 5 6 7 8 9 10 11 12 13 14 15 16 17 18 19 20 21 22 23 24 25 26 27 28 29 30 31 32 33 34 35 36 37 38 39 40 41 42 43 44 45 46 47 48 49 50 51 52 53 54 55 56 57 58 59 60 61 62 63 64 65 66 67 68 69 70 71 72 73 74 75 76 77 78 79 80 81 82 83 84 85 86 87 88 89 90 91 92 93 94 95 96 97 98 99 100 101 102 103 104 105 106 107 108 109 110 111 112 113 114 115 116 117 118 119 120 121 122 123 124 125 126 127 128 129 130 131 132 133 134 135 136 137 138 139 140 141 142 143 144 145 146 147 148 149 150 151 152 153 154 155 156 157 158