Ergebnis 1 bis 1 von 1

Thema: Piano [Jap-Dub][Ger-Sub][480p][DVDRip]

Dieser Thread wurde noch nicht bewertet. Bewerte ihn doch, wenn er dir gefällt!
  1. #1
    Uploader Avatar von Filbo11
    Registriert seit
    Jan 2015
    Beiträge
    931
    Punkte
    17.281
    Errungenschaften:
    TomodachisErste Gruppe1 Jahr registriertCreated Album picturesTagger First Class

    Piano [Jap-Dub][Ger-Sub][480p][DVDRip]

    Piano
    ピアノ
    Piano: The Melody of a Young Girl's Heart




    Handlung

    Miu spielt schon sehr lange Klavier. Sie ist ein sehr ruhiges und zurückhaltendes Mädchen. In ihrer Schule gibt es einen Oberschüler, den sie sehr verehrt und mag, aber ihn immer nur anzusehen kostet sie viel Zurückhaltung, so ganz alleine…
    Ihre Lebenserfahrungen spielen im Rhythmus der Klaviernoten, die sie spielt, wie zum Beispiel die schönen Zeiten mit ihren Freunden und ihrer Familie, und nicht zu vergessen die Liebe.


    Format: avi
    Dauer: ca. 24 min
    Größe: ca. 175 MB ( gesamt: 1,75 GB)
    Episodenanzahl: 10/10
    Sprache: Japanisch
    Untertitel: Deutsch
    Group: [Vidom&FA]
    Hoster: Uploaded.net & Share-Online.biz
    kein PW


    Screenshots & MediaInfo

    Spoiler
    [Links sind nur für registrierte und aktivierte Nutzer sichtbar. Klicke hier um dich zu registrieren.]
    [Links sind nur für registrierte und aktivierte Nutzer sichtbar. Klicke hier um dich zu registrieren.]

    Code:
    General
    Complete name               : [Vidom&FA].Piano.01.[xvid,ger.sub]_3B8F32C1.avi
    Format                      : AVI
    Format/Info                 : Audio Video Interleave
    File size                   : 176 MiB
    Duration                    : 24mn 2s
    Overall bit rate            : 1 021 Kbps
    Writing application         : VirtualDubMod 1.5.4.1 (build 2066/release)
    Writing library             : VirtualDubMod build 2066/release
    
    Video
    ID                          : 0
    Format                      : MPEG-4 Visual
    Format profile              : Advanced [email protected]
    Format settings, BVOP       : 3
    Format settings, QPel       : No
    Format settings, GMC        : No warppoints
    Format settings, Matrix     : Default (H.263)
    Muxing mode                 : Packed bitstream
    Codec ID                    : XVID
    Codec ID/Hint               : XviD
    Duration                    : 24mn 2s
    Bit rate                    : 884 Kbps
    Width                       : 640 pixels
    Height                      : 480 pixels
    Display aspect ratio        : 4:3
    Frame rate                  : 23.976 fps
    Color space                 : YUV
    Chroma subsampling          : 4:2:0
    Bit depth                   : 8 bits
    Scan type                   : Progressive
    Compression mode            : Lossy
    Bits/(Pixel*Frame)          : 0.120
    Stream size                 : 152 MiB (87%)
    Writing library             : XviD 1.1.2 (UTC 2006-11-01)
    
    Audio
    ID                          : 1
    Format                      : MPEG Audio
    Format version              : Version 1
    Format profile              : Layer 3
    Mode                        : Joint stereo
    Codec ID                    : 55
    Codec ID/Hint               : MP3
    Duration                    : 24mn 2s
    Bit rate mode               : Constant
    Bit rate                    : 128 Kbps
    Channel(s)                  : 2 channels
    Sampling rate               : 44.1 KHz
    Compression mode            : Lossy
    Stream size                 : 22.0 MiB (13%)
    Alignment                   : Aligned on interleaves
    Interleave, duration        : 42 ms (1.00 video frame)
    Interleave, preload duratio : 104 ms


    Alle Mirrors untereinander kompatibel
    Folgen einzeln ladbar


    Download
    Geschützter Bereich - Bedanke dich beim Poster, um den Bereich sehen zu können
    Hier erfährst Du wie Du Dich bedanken kannst oder werde jetzt Premium Mitglied ab einer Spende von 5€ und erhalte sofortigen Zugriff auf den Downloadbereich!


    Geändert von Filbo11 (12. April 2016 um 10:15 Uhr)

    [Links sind nur für registrierte und aktivierte Nutzer sichtbar. Klicke hier um dich zu registrieren.]

    Ich wäre allen sehr dankbar, die mir gravierende Fehler in meinen Releases per PN melden

  2. 7 Benutzer sagen Danke:

    Bloodywaffe (11. February 2016),herrwefer (15. June 2016),Miauundso (22. July 2015),midnighter (22. July 2015),nabou (23. July 2015),prinzvegeta (28. July 2015),SONNYxq (23. July 2015)

Stichworte

Lesezeichen

Berechtigungen

  • Neue Themen erstellen: Nein
  • Themen beantworten: Nein
  • Anhänge hochladen: Nein
  • Beiträge bearbeiten: Nein
  •  

1 2 3 4 5 6 7 8 9 10 11 12 13 14 15 16 17 18 19 20 21 22 23 24 25 26 27 28 29 30 31 32 33 34 35 36 37 38 39 40 41 42 43 44 45 46 47 48 49 50 51 52 53 54 55 56 57 58 59 60 61 62 63 64 65 66 67 68 69 70 71 72 73 74 75 76 77 78 79 80 81 82 83 84 85 86 87 88 89 90 91 92 93 94 95 96 97 98 99 100 101 102 103 104 105 106 107 108 109 110 111 112 113 114 115 116 117 118 119 120 121 122 123 124 125 126 127 128 129 130 131 132 133 134 135 136 137 138 139 140 141 142 143 144 145 146 147 148 149 150 151 152 153 154 155 156 157 158