Ergebnis 1 bis 5 von 5

Thema: Prince of Stride: Alternative [Jap-Dub][Ger-Sub][720p][HDTV] - LS

Dieser Thread wurde noch nicht bewertet. Bewerte ihn doch, wenn er dir gefällt!
  1. #1
    Kami-sama Avatar von galudo
    Registriert seit
    Mar 2015
    Beiträge
    1.371
    Punkte
    26.032
    Errungenschaften:
    TomodachisTagger ProfiHyperaktivSenpaiGang Leader

    Prince of Stride: Alternative [Jap-Dub][Ger-Sub][720p][HDTV] - LS

    Prince of Stride: Alternative
    プリンス・オブ・ストライド オルタナティブ



    Kurzbeschreibung
    Im Grunde ist Sakurai Nana genau wie jedes andere Mädchen. Bis über beide Ohren verliebt, kommt sie von Hokkaido nach Tokyo an die Honan Akademie, um mit ihrer ersten großen Liebe zusammensein zu können. Der einzige Unterschied: Ihr Herz schlägt nur für den HOnan Stride. Also ist sie wild entschlossen, dem Club als Managerin beizutreten. Jedoch muss sie sich auf einige Überraschungen gefasst machen. Nicht nur, dass der Club kurz vor dem Aus steht, die wenigen Mitglieder haben auch herzlich wenig Interesse daran, sie zu ihrer Managerin zu machen …
    Format: MP4
    Sprache: Japanisch
    Untertitel: Deutsch
    Genre: Sport
    Größe: ~ 380 MB pro Folge | Gesamtgröße: 4,67 GB
    Dauer: ~ 24 Minuten
    Jahr: 2016
    Video: 720p
    Source: HDTV
    Subgroup / Releasegroup: Lunatic-Studio

    Hoster: Share-Online | Uploaded
    Passwort: siehe unten
    Onlinestatus:


    Datei-Info
    Spoiler
    Code:
    General
    Complete name                  : [L-S] Prince of Stride - Alternative - 01 (1280x720 h264 AAC) [EF2083F4].mp4
    Format                         : MPEG-4
    Format profile                 : Base Media
    Codec ID                       : isom
    File size                      : 382 MiB
    Duration                       : 23mn 45s
    Overall bit rate mode          : Variable
    Overall bit rate               : 2 248 Kbps
    Encoded date                   : UTC 2016-01-08 22:18:18
    Tagged date                    : UTC 2016-01-08 22:18:18
    
    Video
    ID                             : 1
    Format                         : AVC
    Format/Info                    : Advanced Video Codec
    Format profile                 : [email protected]
    Format settings, CABAC         : Yes
    Format settings, ReFrames      : 4 frames
    Codec ID                       : avc1
    Codec ID/Info                  : Advanced Video Coding
    Duration                       : 23mn 45s
    Bit rate                       : 2 055 Kbps
    Maximum bit rate               : 20.7 Mbps
    Width                          : 1 280 pixels
    Height                         : 720 pixels
    Display aspect ratio           : 16:9
    Frame rate mode                : Constant
    Frame rate                     : 23.976 fps
    Color space                    : YUV
    Chroma subsampling             : 4:2:0
    Bit depth                      : 8 bits
    Scan type                      : Progressive
    Bits/(Pixel*Frame)             : 0.093
    Stream size                    : 349 MiB (91%)
    Title                          : Lunatic-Studio
    Writing library                : x264 core 148 r2597 e86f3a1
    Encoding settings              : cabac=1 / ref=3 / deblock=1:1:1 / analyse=0x3:0x133 / me=umh / subme=10 / psy=1 / psy_rd=1.00:0.00 / mixed_ref=1 / me_range=24 / chroma_me=1 / trellis=2 / 8x8dct=1 / cqm=0 / deadzone=21,11 / fast_pskip=0 / chroma_qp_offset=-2 / threads=6 / lookahead_threads=1 / sliced_threads=0 / nr=0 / decimate=0 / interlaced=0 / bluray_compat=0 / constrained_intra=0 / bframes=5 / b_pyramid=2 / b_adapt=2 / b_bias=0 / direct=3 / weightb=1 / open_gop=0 / weightp=2 / keyint=250 / keyint_min=23 / scenecut=40 / intra_refresh=0 / rc_lookahead=60 / rc=crf / mbtree=1 / crf=16.0 / qcomp=0.60 / qpmin=0 / qpmax=69 / qpstep=4 / ip_ratio=1.40 / aq=2:0.85
    Encoded date                   : UTC 2016-01-08 22:18:18
    Tagged date                    : UTC 2016-01-08 22:18:24
    
    Audio
    ID                             : 2
    Format                         : AAC
    Format/Info                    : Advanced Audio Codec
    Format profile                 : LC
    Codec ID                       : 67
    Duration                       : 23mn 45s
    Bit rate mode                  : Variable
    Bit rate                       : 192 Kbps
    Maximum bit rate               : 197 Kbps
    Channel(s)                     : 2 channels
    Channel positions              : Front: L R
    Sampling rate                  : 48.0 KHz
    Compression mode               : Lossy
    Stream size                    : 32.0 MiB (8%)
    Encoded date                   : UTC 2016-01-08 22:18:22
    Tagged date                    : UTC 2016-01-08 22:18:24


    Folgen 12 / 12 online
    Folgen einzeln ladbar



    || Download & Passwort ||


    Geschützter Bereich - Bedanke dich beim Poster, um den Bereich sehen zu können
    Hier erfährst Du wie Du Dich bedanken kannst oder werde jetzt Premium Mitglied ab einer Spende von 5€ und erhalte sofortigen Zugriff auf den Downloadbereich!

    Geändert von galudo (12. October 2016 um 18:29 Uhr) Grund: Folgenupdate
    SUPPORT UND REUP ANFRAGEN NUR >> [Links sind nur für registrierte und aktivierte Nutzer sichtbar. Klicke hier um dich zu registrieren.] <<
    Bitte IMMER den Thread-Link mitschicken.

  2. 35 Benutzer sagen Danke:

    AKira_Hidaka (1. April 2016),Always_Unknown (6. March 2016),Asuka Langley (25. April 2016),ChristianLake (24. March 2016),CKSI (11. January 2016),coldbears48 (3. February 2016),DaaFloH (10. June 2016),DerZero (17. February 2016),DivinRule (11. January 2016),DJPAUL1990 (28. March 2016),Drachengott (11. January 2016),dude-yumi (16. August 2016),Hi im Shini (12. January 2016),Intege (31. March 2016),IshiFuroito (28. May 2016),janik2009 (27. May 2016),jesan6 (6. February 2016),livia84 (11. January 2016),lucky_mer (3. April 2016),Megamani (17. January 2016),midnighter (23. January 2016),Nanatzusaya (19. April 2016),Nijazi2000 (24. March 2016),old nick (11. January 2016),Radesys (22. March 2016),realmadridcf (8. February 2016),redithebat (20. March 2016),showtekia (3. April 2016),Steinauge (9. March 2016),Suigetsu (17. January 2016),Sway (22. April 2016),thedarkone777 (18. January 2016),YamiXGhost (14. January 2016),yoda85 (11. January 2016),Zap (14. January 2016)

  3. #2
    Kami-sama Avatar von galudo
    Registriert seit
    Mar 2015
    Beiträge
    1.371
    Punkte
    26.032
    Errungenschaften:
    TomodachisTagger ProfiHyperaktivSenpaiGang Leader

    AW: Prince of Stride: Alternative [Jap-Dub][Ger-Sub][720p][HDTV] - LS

    Episode 2 Online
    SUPPORT UND REUP ANFRAGEN NUR >> [Links sind nur für registrierte und aktivierte Nutzer sichtbar. Klicke hier um dich zu registrieren.] <<
    Bitte IMMER den Thread-Link mitschicken.

  4. #3
    Kami-sama Avatar von galudo
    Registriert seit
    Mar 2015
    Beiträge
    1.371
    Punkte
    26.032
    Errungenschaften:
    TomodachisTagger ProfiHyperaktivSenpaiGang Leader

    AW: Prince of Stride: Alternative [Jap-Dub][Ger-Sub][720p][HDTV] - LS

    Episode 3 Online
    SUPPORT UND REUP ANFRAGEN NUR >> [Links sind nur für registrierte und aktivierte Nutzer sichtbar. Klicke hier um dich zu registrieren.] <<
    Bitte IMMER den Thread-Link mitschicken.

  5. #4
    Kami-sama Avatar von galudo
    Registriert seit
    Mar 2015
    Beiträge
    1.371
    Punkte
    26.032
    Errungenschaften:
    TomodachisTagger ProfiHyperaktivSenpaiGang Leader

    AW: Prince of Stride: Alternative [Jap-Dub][Ger-Sub][720p][HDTV] - LS

    Episode 4 bis 8 Online
    SUPPORT UND REUP ANFRAGEN NUR >> [Links sind nur für registrierte und aktivierte Nutzer sichtbar. Klicke hier um dich zu registrieren.] <<
    Bitte IMMER den Thread-Link mitschicken.

  6. #5
    Kami-sama Avatar von galudo
    Registriert seit
    Mar 2015
    Beiträge
    1.371
    Punkte
    26.032
    Errungenschaften:
    TomodachisTagger ProfiHyperaktivSenpaiGang Leader

    AW: Prince of Stride: Alternative [Jap-Dub][Ger-Sub][720p][HDTV] - LS

    Episode 9 bis 12 Online
    Anime somit abgeschlossen
    SUPPORT UND REUP ANFRAGEN NUR >> [Links sind nur für registrierte und aktivierte Nutzer sichtbar. Klicke hier um dich zu registrieren.] <<
    Bitte IMMER den Thread-Link mitschicken.

Stichworte

Lesezeichen

Berechtigungen

  • Neue Themen erstellen: Nein
  • Themen beantworten: Nein
  • Anhänge hochladen: Nein
  • Beiträge bearbeiten: Nein
  •  

1 2 3 4 5 6 7 8 9 10 11 12 13 14 15 16 17 18 19 20 21 22 23 24 25 26 27 28 29 30 31 32 33 34 35 36 37 38 39 40 41 42 43 44 45 46 47 48 49 50 51 52 53 54 55 56 57 58 59 60 61 62 63 64 65 66 67 68 69 70 71 72 73 74 75 76 77 78 79 80 81 82 83 84 85 86 87 88 89 90 91 92 93 94 95 96 97 98 99 100 101 102 103 104 105 106 107 108 109 110 111 112 113 114 115 116 117 118 119 120 121 122 123 124 125 126 127 128 129 130 131 132 133 134 135 136 137 138 139 140 141 142 143 144 145 146 147 148 149 150 151 152 153 154 155 156 157 158