Ergebnis 1 bis 1 von 1

Thema: R.O.D: The TV [Jap-Dub] [Ger-Sub] [DVDRip]

Dieser Thread wurde noch nicht bewertet. Bewerte ihn doch, wenn er dir gefällt!
  1. #1
    United we Stand Avatar von 00Ryuji00
    Registriert seit
    Oct 2012
    Beiträge
    3.902
    Punkte
    100.019
    Errungenschaften:
    TomodachisGang LeaderHikikomoriTagger Amateur50000 Erfahrungspunkte

    R.O.D: The TV [Jap-Dub] [Ger-Sub] [DVDRip]

    R.O.D: The TV
    アール・オー・ディー ザ・ティーヴィー
    Read or Die TV
    Read or Dream






    Kurzbeschreibung:
    Die drei Schwestern Michelle, Maggie und Anita leben zusammen in Hong Kong und betreiben ein Detektivbüro mit dem Namen "Detektivbüro Die Drei Schwestern". Überdies sind alle drei Papiernutzer, das heißt, sie können Papier nach ihrem Willen manipulieren. Eines Tages werden die drei als Bodyguards der jungen Schriftstellerin Sumiregawa Nenene angeheuert, woraufhin es die drei in Nenenes Wohnung in Tokio verschlägt. Von dort aus nehmen sie Aufträge der geheimnisvollen Dokusensha Organisation an, in deren Auftrag sie alte Bücher wiederbeschaffen sollen.


    Sprache: Japanisch
    Untertitel: Deutsch
    Episodenanzahl: 26/26
    Format: .avi
    Auflösung: 480p (640x480, 4:3)
    Codec: XviD
    Gruppe: GFS & GFTP
    Hoster: Share-Online ; Uploaded


    Datei Info:
    Spoiler

    Code:
    
    
    Format                                   : AVI
    Format/Info                              : Audio Video Interleave
    File size                                : 176 MiB
    Duration                                 : 24mn 37s
    Overall bit rate                         : 998 Kbps
    Writing application                      : VirtualDubMod 1.5.1.1a (build 1155/release)
    Writing library                          : VirtualDubMod build 1155/release
    
    Video
    ID                                       : 0
    Format                                   : MPEG-4 Visual
    Format profile                           : [email protected]
    Format settings, BVOP                    : 3
    Format settings, QPel                    : No
    Format settings, GMC                     : No warppoints
    Format settings, Matrix                  : Default (H.263)
    Codec ID                                 : DX50
    Codec ID/Hint                            : DivX 5
    Duration                                 : 24mn 37s
    Bit rate                                 : 877 Kbps
    Width                                    : 640 pixels
    Height                                   : 480 pixels
    Display aspect ratio                     : 4:3
    Frame rate                               : 23.976 fps
    Color space                              : YUV
    Chroma subsampling                       : 4:2:0
    Bit depth                                : 8 bits
    Scan type                                : Progressive
    Compression mode                         : Lossy
    Bits/(Pixel*Frame)                       : 0.119
    Stream size                              : 154 MiB (88%)
    Writing library                          : XviD 0.0.09 (UTC 2003-03-25)
    
    Audio
    ID                                       : 1
    Format                                   : MPEG Audio
    Format version                           : Version 1
    Format profile                           : Layer 3
    Mode                                     : Joint stereo
    Mode extension                           : MS Stereo
    Codec ID                                 : 55
    Codec ID/Hint                            : MP3
    Duration                                 : 24mn 37s
    Bit rate mode                            : Constant
    Bit rate                                 : 112 Kbps
    Channel count                            : 2 channels
    Sampling rate                            : 44.1 KHz
    Compression mode                         : Lossy
    Delay relative to video                  : 26ms
    Stream size                              : 19.7 MiB (11%)
    Alignment                                : Split accross interleaves
    Interleave, duration                     : 42 ms (1.00 video frame)
    Interleave, preload duration             : 500 ms
    
    





    Geschützter Bereich - Bedanke dich beim Poster, um den Bereich sehen zu können
    Hier erfährst Du wie Du Dich bedanken kannst oder werde jetzt Premium Mitglied ab einer Spende von 5€ und erhalte sofortigen Zugriff auf den Downloadbereich!
    !!!Alle Anliegen bezüglich Uploads werden nur mit direktem Threadlink zum Angebot bearbeitet!!!

    Re-Uploadanfragen nur per PN - Ihr könnt mir auch Listen schicken

    Re-Uploads erfolgen meist innerhalb 24h, kann aber auch bis zu 7 Tage dauern

    [Links sind nur für registrierte und aktivierte Nutzer sichtbar. Klicke hier um dich zu registrieren.] | [Links sind nur für registrierte und aktivierte Nutzer sichtbar. Klicke hier um dich zu registrieren.] | >[Links sind nur für registrierte und aktivierte Nutzer sichtbar. Klicke hier um dich zu registrieren.]<
    [Links sind nur für registrierte und aktivierte Nutzer sichtbar. Klicke hier um dich zu registrieren.]

  2. 9 Benutzer sagen Danke:

    Akio (19. August 2015),Aluaran (16. June 2015),Antipott (2. July 2015),Bloodywaffe (27. January 2016),eraz (11. January 2016),Ignasum (19. June 2015),Melijal (30. June 2015),midnighter (16. June 2015),Schweigi (30. June 2015)

Lesezeichen

Berechtigungen

  • Neue Themen erstellen: Nein
  • Themen beantworten: Nein
  • Anhänge hochladen: Nein
  • Beiträge bearbeiten: Nein
  •  

1 2 3 4 5 6 7 8 9 10 11 12 13 14 15 16 17 18 19 20 21 22 23 24 25 26 27 28 29 30 31 32 33 34 35 36 37 38 39 40 41 42 43 44 45 46 47 48 49 50 51 52 53 54 55 56 57 58 59 60 61 62 63 64 65 66 67 68 69 70 71 72 73 74 75 76 77 78 79 80 81 82 83 84 85 86 87 88 89 90 91 92 93 94 95 96 97 98 99 100 101 102 103 104 105 106 107 108 109 110 111 112 113 114 115 116 117 118 119 120 121 122 123 124 125 126 127 128 129 130 131 132 133 134 135 136 137 138 139 140 141 142 143 144 145 146 147 148 149 150 151 152 153 154 155 156 157 158