Ergebnis 1 bis 1 von 1

Thema: RDG: Red Data Girl [Jap-Dub][Ger-Sub][720p][HDTV]-C-Subs

Dieser Thread wurde noch nicht bewertet. Bewerte ihn doch, wenn er dir gefällt!
  1. #1
    United we Stand Avatar von 00Ryuji00
    Registriert seit
    Oct 2012
    Beiträge
    3.899
    Punkte
    99.771
    Errungenschaften:
    TomodachisGang LeaderHikikomoriTagger Amateur50000 Erfahrungspunkte

    RDG: Red Data Girl [Jap-Dub][Ger-Sub][720p][HDTV]-C-Subs


    RDG: Red Data Girl
    RDG レッドデータガール
    Red Data Girl
    RDG






    Kurzbeschreibung:
    Zitat Zitat von AniSearch.com
    Die 15-jährige Izumiko Suzuhara verbrachte ihr gesamtes Leben im Tamakura Schrein tief in den Kumano-Bergen. Sie ist ein schüchternes Mädchen und zerstört jedes elektronische Gerät, das sie berührt. Als sie darüber nachdenkt, die Berge zu verlassen, um die Stadt kennenzulernen, schlägt ihr ihr Vormund Sagara Yukimasa vor, eine High School in Tokio zu besuchen und stellt ihr seinen Sohn Miyuki als ewigen Beschützer zur Seite. Izumiko und Miyuki kennen sich seit frühester Kindheit, doch ist ihr Verhältnis nicht das beste. Das ändert sich, als während eines Schulausfluges ein mysteriöses Wesens namens Himegami erscheint und sich ein schrecklicher Vorfall ereignet. Izumiko muss erfahren, dass sie die letzte Stellvertreterin (Yorishiro) der Himegami-Göttin und Miyuki ihr Beschützer (Yamabushi) ist.


    Spieldauer: 25min
    Genre: Geistergeschichten
    Nebengenres: Alltagsleben, Geistergeschichten, Männlich, Weiblich
    Jahr: 2013
    Sprache: Japanisch
    Untertitel: Deutsch
    Größe pro Folge: 300-500 MB
    Episodenanzahl: 12/12
    Format: mp4
    Auflösung: 720p (16:9)
    Videocodec: x264 (AVC)
    Audiocodec: AAC
    Releasegruppe: C-Subs
    Hoster: Share-Online, Uploaded


    MediaInfo
    Code:
    
    Format                                   : MPEG-4
    Format profile                           : Base Media
    Codec ID                                 : isom
    File size                                : 332 MiB
    Duration                                 : 24mn 39s
    Overall bit rate mode                    : Variable
    Overall bit rate                         : 1 880 Kbps
    Encoded date                             : UTC 2013-04-16 12:09:23
    Tagged date                              : UTC 2013-04-16 12:09:23
    
    Video
    ID                                       : 1
    Format                                   : AVC
    Format/Info                              : Advanced Video Codec
    Format profile                           : [email protected]
    Format settings, CABAC                   : Yes
    Format settings, ReFrames                : 16 frames
    Codec ID                                 : avc1
    Codec ID/Info                            : Advanced Video Coding
    Duration                                 : 24mn 39s
    Source duration                          : 3mn 11s
    Bit rate                                 : 1 621 Kbps
    Maximum bit rate                         : 20.0 Mbps
    Width                                    : 1 280 pixels
    Height                                   : 720 pixels
    Display aspect ratio                     : 16:9
    Frame rate mode                          : Constant
    Frame rate                               : 23.976 fps
    Color space                              : YUV
    Chroma subsampling                       : 4:2:0
    Bit depth                                : 8 bits
    Scan type                                : Progressive
    Bits/(Pixel*Frame)                       : 0.073
    Stream size                              : 286 MiB (86%)
    Source stream size                       : 286 MiB (86%)
    Writing library                          : x264 core 130 r2273 b3065e6
    Encoding settings                        : cabac=1 / ref=16 / deblock=1:0:0 / analyse=0x3:0x133 / me=umh / subme=10 / psy=1 / psy_rd=1.00:0.00 / mixed_ref=1 / me_range=24 / chroma_me=1 / trellis=2 / 8x8dct=1 / cqm=0 / deadzone=21,11 / fast_pskip=1 / chroma_qp_offset=-2 / threads=12 / lookahead_threads=2 / sliced_threads=0 / nr=0 / decimate=1 / interlaced=0 / bluray_compat=0 / constrained_intra=0 / bframes=8 / b_pyramid=2 / b_adapt=2 / b_bias=0 / direct=3 / weightb=1 / open_gop=0 / weightp=2 / keyint=240 / keyint_min=23 / scenecut=40 / intra_refresh=0 / rc_lookahead=60 / rc=crf / mbtree=1 / crf=18.0 / qcomp=0.60 / qpmin=10 / qpmax=51 / qpstep=4 / ip_ratio=1.40 / aq=1:1.00
    Encoded date                             : UTC 2013-04-16 11:28:20
    Tagged date                              : UTC 2013-04-16 12:09:24
    mdhd_Duration                            : 1479936
    
    Audio
    ID                                       : 2
    Format                                   : AAC
    Format/Info                              : Advanced Audio Codec
    Format profile                           : LC
    Codec ID                                 : 40
    Duration                                 : 24mn 39s
    Bit rate mode                            : Variable
    Bit rate                                 : 256 Kbps
    Maximum bit rate                         : 282 Kbps
    Channel count                            : 2 channels
    Channel positions                        : Front: L R
    Sampling rate                            : 48.0 KHz
    Compression mode                         : Lossy
    Stream size                              : 45.1 MiB (14%)
    Encoded date                             : UTC 2013-04-16 10:37:47
    Tagged date                              : UTC 2013-04-16 12:09:24
    
    Menu
    00:00:53.970                             : Opening
    00:02:23.893                             : Prolog
    00:11:26.852                             : Der erste neue Schüler
    00:22:59.795                             : Ending
    00:24:29.885                             : Vorschau
    
    





    Geschützter Bereich - Bedanke dich beim Poster, um den Bereich sehen zu können
    Hier erfährst Du wie Du Dich bedanken kannst oder werde jetzt Premium Mitglied ab einer Spende von 5€ und erhalte sofortigen Zugriff auf den Downloadbereich!

    !!!Alle Anliegen bezüglich Uploads werden nur mit direktem Threadlink zum Angebot bearbeitet!!!

    Re-Uploadanfragen nur per PN - Ihr könnt mir auch Listen schicken

    Re-Uploads erfolgen meist innerhalb 24h, kann aber auch bis zu 7 Tage dauern

    [Links sind nur für registrierte und aktivierte Nutzer sichtbar. Klicke hier um dich zu registrieren.] | [Links sind nur für registrierte und aktivierte Nutzer sichtbar. Klicke hier um dich zu registrieren.] | >[Links sind nur für registrierte und aktivierte Nutzer sichtbar. Klicke hier um dich zu registrieren.]<
    [Links sind nur für registrierte und aktivierte Nutzer sichtbar. Klicke hier um dich zu registrieren.]

  2. 13 Benutzer sagen Danke:

    AkaTenshi (5. February 2016),Angel86 (3. January 2016),Black Lotus (10. October 2015),Drachengott (14. August 2015),Ley0304 (16. August 2015),LoganKell (13. April 2016),mccharly (9. August 2015),midnighter (13. August 2015),Raphael96 (8. February 2016),Sandy7580 (8. April 2016),SONNYxq (9. August 2015),YamiXGhost (9. September 2015),Yaranaika (27. March 2016)

Lesezeichen

Berechtigungen

  • Neue Themen erstellen: Nein
  • Themen beantworten: Nein
  • Anhänge hochladen: Nein
  • Beiträge bearbeiten: Nein
  •  

1 2 3 4 5 6 7 8 9 10 11 12 13 14 15 16 17 18 19 20 21 22 23 24 25 26 27 28 29 30 31 32 33 34 35 36 37 38 39 40 41 42 43 44 45 46 47 48 49 50 51 52 53 54 55 56 57 58 59 60 61 62 63 64 65 66 67 68 69 70 71 72 73 74 75 76 77 78 79 80 81 82 83 84 85 86 87 88 89 90 91 92 93 94 95 96 97 98 99 100 101 102 103 104 105 106 107 108 109 110 111 112 113 114 115 116 117 118 119 120 121 122 123 124 125 126 127 128 129 130 131 132 133 134 135 136 137 138 139 140 141 142 143 144 145 146 147 148 149 150 151 152 153 154 155 156 157 158