Ergebnis 1 bis 1 von 1

Thema: RDG: Red Data Girl [Jap-Dub][Ger-Sub][720p][HDTV]-Chinu

Dieser Thread wurde noch nicht bewertet. Bewerte ihn doch, wenn er dir gefällt!
  1. #1
    United we Stand Avatar von 00Ryuji00
    Registriert seit
    Oct 2012
    Beiträge
    3.897
    Punkte
    99.519
    Errungenschaften:
    TomodachisGang LeaderHikikomoriTagger Amateur50000 Erfahrungspunkte

    RDG: Red Data Girl [Jap-Dub][Ger-Sub][720p][HDTV]-Chinu


    RDG: Red Data Girl
    RDG レッドデータガール
    Red Data Girl
    RDG






    Kurzbeschreibung:
    Zitat Zitat von AniSearch.com
    Die 15-jährige Izumiko Suzuhara verbrachte ihr gesamtes Leben im Tamakura Schrein tief in den Kumano-Bergen. Sie ist ein schüchternes Mädchen und zerstört jedes elektronische Gerät, das sie berührt. Als sie darüber nachdenkt, die Berge zu verlassen, um die Stadt kennenzulernen, schlägt ihr ihr Vormund Sagara Yukimasa vor, eine High School in Tokio zu besuchen und stellt ihr seinen Sohn Miyuki als ewigen Beschützer zur Seite. Izumiko und Miyuki kennen sich seit frühester Kindheit, doch ist ihr Verhältnis nicht das beste. Das ändert sich, als während eines Schulausfluges ein mysteriöses Wesens namens Himegami erscheint und sich ein schrecklicher Vorfall ereignet. Izumiko muss erfahren, dass sie die letzte Stellvertreterin (Yorishiro) der Himegami-Göttin und Miyuki ihr Beschützer (Yamabushi) ist.


    Spieldauer: 25min
    Genre: Geistergeschichten
    Nebengenres: Alltagsleben, Geistergeschichten, Männlich, Weiblich
    Jahr: 2013
    Sprache: Japanisch
    Untertitel: Deutsch
    Größe pro Folge: 350 MB
    Episodenanzahl: 12/12
    Format: mp4
    Auflösung: 720p (16:9)
    Videocodec: x264 (AVC)
    Audiocodec: AAC
    Releasegruppe: Chinurarete-Subs
    Hoster: Share-Online, Uploaded


    MediaInfo
    Code:
    
    Format                                   : MPEG-4
    Format profile                           : Base Media
    Codec ID                                 : isom
    File size                                : 352 MiB
    Duration                                 : 24mn 39s
    Overall bit rate mode                    : Variable
    Overall bit rate                         : 1 997 Kbps
    Encoded date                             : UTC 2013-05-02 21:53:28
    Tagged date                              : UTC 2013-05-02 21:53:28
    Writing application                      : Yamb 2.1.0.0 [http://yamb.unite-video.com]
    
    Video
    ID                                       : 1
    Format                                   : AVC
    Format/Info                              : Advanced Video Codec
    Format profile                           : [email protected]
    Format settings, CABAC                   : Yes
    Format settings, ReFrames                : 4 frames
    Codec ID                                 : avc1
    Codec ID/Info                            : Advanced Video Coding
    Duration                                 : 24mn 39s
    Bit rate                                 : 1 805 Kbps
    Maximum bit rate                         : 14.7 Mbps
    Width                                    : 1 280 pixels
    Height                                   : 720 pixels
    Display aspect ratio                     : 16:9
    Frame rate mode                          : Constant
    Frame rate                               : 23.976 fps
    Color space                              : YUV
    Chroma subsampling                       : 4:2:0
    Bit depth                                : 8 bits
    Scan type                                : Progressive
    Bits/(Pixel*Frame)                       : 0.082
    Stream size                              : 318 MiB (90%)
    Writing library                          : x264 core 125 r2200+677M 3a754e7
    Encoding settings                        : cabac=1 / ref=3 / deblock=1:0:0 / analyse=0x3:0x113 / me=umh / subme=7 / psy=1 / fade_compensate=0.00 / psy_rd=1.00:0.00 / mixed_ref=1 / me_range=16 / chroma_me=1 / trellis=1 / 8x8dct=1 / cqm=0 / deadzone=21,11 / fast_pskip=1 / chroma_qp_offset=-2 / threads=6 / lookahead_threads=1 / sliced_threads=0 / nr=0 / decimate=1 / interlaced=0 / bluray_compat=0 / constrained_intra=0 / fgo=0 / bframes=3 / b_pyramid=2 / b_adapt=1 / b_bias=0 / direct=1 / weightb=1 / open_gop=0 / weightp=2 / keyint=240 / keyint_min=23 / scenecut=40 / intra_refresh=0 / rc=crf / mbtree=0 / crf=20.0000 / qcomp=0.60 / qpmin=0 / qpmax=69 / qpstep=4 / ip_ratio=1.40 / pb_ratio=1.30 / aq=1:1.20
    Encoded date                             : UTC 2013-05-03 20:50:54
    Tagged date                              : UTC 2013-05-02 21:53:31
    
    Audio
    ID                                       : 2
    Format                                   : AAC
    Format/Info                              : Advanced Audio Codec
    Format profile                           : LC
    Codec ID                                 : 40
    Duration                                 : 24mn 39s
    Bit rate mode                            : Variable
    Bit rate                                 : 192 Kbps
    Channel count                            : 2 channels
    Channel positions                        : Front: L R
    Sampling rate                            : 48.0 KHz
    Compression mode                         : Lossy
    Stream size                              : 33.3 MiB (9%)
    Encoded date                             : UTC 2013-05-02 21:53:29
    Tagged date                              : UTC 2013-05-02 21:53:31
    
    





    Geschützter Bereich - Bedanke dich beim Poster, um den Bereich sehen zu können
    Hier erfährst Du wie Du Dich bedanken kannst oder werde jetzt Premium Mitglied ab einer Spende von 5€ und erhalte sofortigen Zugriff auf den Downloadbereich!

    !!!Alle Anliegen bezüglich Uploads werden nur mit direktem Threadlink zum Angebot bearbeitet!!!

    Re-Uploadanfragen nur per PN - Ihr könnt mir auch Listen schicken

    Re-Uploads erfolgen meist innerhalb 24h, kann aber auch bis zu 7 Tage dauern

    [Links sind nur für registrierte und aktivierte Nutzer sichtbar. Klicke hier um dich zu registrieren.] | [Links sind nur für registrierte und aktivierte Nutzer sichtbar. Klicke hier um dich zu registrieren.] | >[Links sind nur für registrierte und aktivierte Nutzer sichtbar. Klicke hier um dich zu registrieren.]<
    [Links sind nur für registrierte und aktivierte Nutzer sichtbar. Klicke hier um dich zu registrieren.]

  2. 11 Benutzer sagen Danke:

    AkaTenshi (5. February 2016),LoganKell (13. April 2016),Meistermagier (10. August 2015),midnighter (13. August 2015),Otonashi Yuzuru (29. September 2015),Raphael96 (8. February 2016),Sandy7580 (8. April 2016),SONNYxq (9. August 2015),Tekk (10. August 2015),YamiXGhost (9. September 2015),Yaranaika (27. March 2016)

Lesezeichen

Berechtigungen

  • Neue Themen erstellen: Nein
  • Themen beantworten: Nein
  • Anhänge hochladen: Nein
  • Beiträge bearbeiten: Nein
  •  

1 2 3 4 5 6 7 8 9 10 11 12 13 14 15 16 17 18 19 20 21 22 23 24 25 26 27 28 29 30 31 32 33 34 35 36 37 38 39 40 41 42 43 44 45 46 47 48 49 50 51 52 53 54 55 56 57 58 59 60 61 62 63 64 65 66 67 68 69 70 71 72 73 74 75 76 77 78 79 80 81 82 83 84 85 86 87 88 89 90 91 92 93 94 95 96 97 98 99 100 101 102 103 104 105 106 107 108 109 110 111 112 113 114 115 116 117 118 119 120 121 122 123 124 125 126 127 128 129 130 131 132 133 134 135 136 137 138 139 140 141 142 143 144 145 146 147 148 149 150 151 152 153 154 155 156 157 158