Ergebnis 1 bis 7 von 7

Thema: Re: Zero Kara Hajimeru Isekai Seikatsu [Laufend][Jap-Dub][Ger-Sub][1080p][WebRip] - Morai

Dieser Thread wurde noch nicht bewertet. Bewerte ihn doch, wenn er dir gefällt!
  1. #1
    Kami-sama Avatar von galudo
    Registriert seit
    Mar 2015
    Beiträge
    1.369
    Punkte
    25.903
    Errungenschaften:
    TomodachisTagger ProfiHyperaktivSenpaiGang Leader

    Re: Zero Kara Hajimeru Isekai Seikatsu [Laufend][Jap-Dub][Ger-Sub][1080p][WebRip] - Morai

    Re: Zero kara Hajimeru Isekai Seikatsu
    Re:ゼロから始める異世界生活
    Re: ZERO Starting Life in Another World



    Kurzbeschreibung
    Subaru Natsuki hat die Fähigkeit, die Zeit zurückzuspulen und den Tod zu überwinden. Doch dies musste er auf qualvolle Weise herausfinden ‒ als er getötet wurde. Und hinzu kommt noch, dass er sich nach dem Zurückspulen nur an das erinnern kann, was seitdem passiert ist. Er war zuvor ein normaler Oberschüler, aber dann ist er in einer anderen Welt verlorengegangen und musste dort von einem schönen, silberhaarigen Mädchen gerettet werden. Nach dem Versuch, sich zu revanchieren, merkt Subaru erst, dass das Mädchen mit viel mehr belastet ist, als er sich hätte vorstellen können. Und dann griffen sie Feinde an, einer nach dem Anderen und bei den Angriffen wurden beide getötet …
    Format: MP4
    Sprache: Japanisch
    Untertitel: Deutsch
    Genre: Abenteuer, Fantasy
    Größe: ~ 700 MB pro Folge | Gesamtgröße: 2,85 GB
    Dauer: ~ 24 Minuten
    Jahr: 2016
    Video: 1080p
    Source: HDTV
    Subgroup / Releasegroup: Morai-Subs

    Hoster: Share-Online | Uploaded
    Passwort: siehe unten
    Onlinestatus:


    Datei-Info
    Spoiler
    Code:
    General
    Complete name                  : [Morai] Re Zero kara Hajimeru Isekai Seikatsu - 01A [8E37CB21].mp4
    Format                         : MPEG-4
    Format profile                 : Base Media
    Codec ID                       : isom
    File size                      : 693 MiB
    Duration                       : 25mn 16s
    Overall bit rate mode          : Variable
    Overall bit rate               : 3 833 Kbps
    Encoded date                   : UTC 2016-04-08 18:37:46
    Tagged date                    : UTC 2016-04-08 18:37:46
    
    Video
    ID                             : 1
    Format                         : AVC
    Format/Info                    : Advanced Video Codec
    Format profile                 : [email protected]
    Format settings, CABAC         : Yes
    Format settings, ReFrames      : 4 frames
    Codec ID                       : avc1
    Codec ID/Info                  : Advanced Video Coding
    Duration                       : 25mn 15s
    Bit rate                       : 3 648 Kbps
    Maximum bit rate               : 19.7 Mbps
    Width                          : 1 920 pixels
    Height                         : 1 080 pixels
    Display aspect ratio           : 16:9
    Frame rate mode                : Constant
    Frame rate                     : 23.976 fps
    Color space                    : YUV
    Chroma subsampling             : 4:2:0
    Bit depth                      : 8 bits
    Scan type                      : Progressive
    Bits/(Pixel*Frame)             : 0.073
    Stream size                    : 659 MiB (95%)
    Title                          : Video
    Writing library                : x264 core 146 r2538 121396c
    Encoding settings              : cabac=1 / ref=4 / deblock=1:1:1 / analyse=0x3:0x133 / me=umh / subme=10 / psy=1 / psy_rd=0.60:0.15 / mixed_ref=1 / me_range=24 / chroma_me=1 / trellis=2 / 8x8dct=1 / cqm=0 / deadzone=21,11 / fast_pskip=1 / chroma_qp_offset=-3 / threads=12 / lookahead_threads=1 / sliced_threads=0 / nr=0 / decimate=1 / interlaced=0 / bluray_compat=0 / constrained_intra=0 / bframes=5 / b_pyramid=2 / b_adapt=2 / b_bias=0 / direct=3 / weightb=1 / open_gop=0 / weightp=2 / keyint=250 / keyint_min=23 / scenecut=40 / intra_refresh=0 / rc_lookahead=60 / rc=crf / mbtree=0 / crf=18.0 / qcomp=0.60 / qpmin=0 / qpmax=69 / qpstep=4 / vbv_maxrate=25000 / vbv_bufsize=25000 / crf_max=0.0 / nal_hrd=none / filler=0 / ip_ratio=1.40 / pb_ratio=1.30 / aq=1:0.80
    Encoded date                   : UTC 2016-04-08 18:37:46
    Tagged date                    : UTC 2016-04-08 18:37:59
    
    Audio
    ID                             : 2
    Format                         : AAC
    Format/Info                    : Advanced Audio Codec
    Format profile                 : LC
    Codec ID                       : 40
    Duration                       : 25mn 16s
    Bit rate mode                  : Variable
    Bit rate                       : 182 Kbps
    Maximum bit rate               : 232 Kbps
    Channel(s)                     : 2 channels
    Channel positions              : Front: L R
    Sampling rate                  : 44.1 KHz
    Compression mode               : Lossy
    Stream size                    : 32.8 MiB (5%)
    Title                          : Japanese
    Language                       : Japanese
    Encoded date                   : UTC 2016-04-08 17:48:55
    Tagged date                    : UTC 2016-04-08 18:37:59


    Folgen 03 / 25 online
    Folgen einzeln ladbar



    || Download & Passwort ||


    Geschützter Bereich - Bedanke dich beim Poster, um den Bereich sehen zu können
    Hier erfährst Du wie Du Dich bedanken kannst oder werde jetzt Premium Mitglied ab einer Spende von 5€ und erhalte sofortigen Zugriff auf den Downloadbereich!

    Geändert von galudo (12. October 2016 um 18:22 Uhr) Grund: Folgenupdate
    SUPPORT UND REUP ANFRAGEN NUR >> [Links sind nur für registrierte und aktivierte Nutzer sichtbar. Klicke hier um dich zu registrieren.] <<
    Bitte IMMER den Thread-Link mitschicken.

  2. 22 Benutzer sagen Danke:

    Androkai (17. April 2016),Asuka Langley (25. April 2016),auron1000 (4. August 2016),Bloodyair (24. April 2016),CKSI (9. April 2016),Conmar (24. June 2016),Evilsensei (10. April 2016),foiderbua (9. April 2016),Goki.Grokus (9. June 2016),hraver (9. April 2016),Imilya (10. June 2016),imnuan (11. June 2016),Kartox (4. May 2016),LOL Meister (10. June 2016),Megamani (9. April 2016),Psykzo (20. May 2016),Ronae (17. April 2016),Skeletti (10. April 2016),SONNYxq (9. April 2016),Suigetsu (12. April 2016),Wölfchen (9. April 2016),xFamoussZ (10. April 2016)

  3. #2
    Uploader Avatar von Filbo11
    Registriert seit
    Jan 2015
    Beiträge
    926
    Punkte
    17.174
    Errungenschaften:
    TomodachisErste Gruppe1 Jahr registriertCreated Album picturesTagger First Class

    AW: Re: Zero Kara Hajimeru Isekai Seikatsu [Laufend][Jap-Dub][Ger-Sub][1080p][WebRip] - Morai

    Re: Zero Kara Hajimeru Isekai Seikatsu
    Re: ゼロから始める異世界生活
    Re:ZERO - Starting Life in Another World




    Beschreibung

    Subaru Natsuki hat die Fähigkeit, die Zeit zurückzuspulen und den Tod zu überwinden. Doch dies musste er auf qualvolle Weise herausfinden ‒ als er getötet wurde. Und hinzu kommt noch, dass er sich nach dem Zurückspulen nur an das erinnern kann, was seitdem passiert ist. Er war zuvor ein normaler Oberschüler, aber dann ist er in einer anderen Welt verlorengegangen und musste dort von einem schönen, silberhaarigen Mädchen gerettet werden. Nach dem Versuch, sich zu revanchieren, merkt Subaru erst, dass das Mädchen mit viel mehr belastet ist, als er sich hätte vorstellen können. Und dann griffen sie Feinde an, einer nach dem Anderen und bei den Angriffen wurden beide getötet …

    Format: MP4
    Dauer: ca. 24 min
    Größe: ca. 600-717 MB
    Sprache: Japanisch
    Untertitel: Deutsch
    Group: [Morai]
    Hoster: Uploaded.net & Share-Online.biz
    kein PW


    Screenshots & MediaInfo

    Spoiler
    [Links sind nur für registrierte und aktivierte Nutzer sichtbar. Klicke hier um dich zu registrieren.]

    Code:
    General
    Complete name               : [Morai] Re Zero kara Hajimeru Isekai Seikatsu - 01A [8E37CB21].mp4
    Format                      : MPEG-4
    Format profile              : Base Media
    Codec ID                    : isom (isom/avc1/iso6)
    File size                   : 693 MiB
    Duration                    : 25mn 16s
    Overall bit rate mode       : Variable
    Overall bit rate            : 3 833 Kbps
    Encoded date                : UTC 2016-04-08 18:37:46
    Tagged date                 : UTC 2016-04-08 18:37:46
    
    Video
    ID                          : 1
    Format                      : AVC
    Format/Info                 : Advanced Video Codec
    Format profile              : [email protected]
    Format settings, CABAC      : Yes
    Format settings, ReFrames   : 4 frames
    Codec ID                    : avc1
    Codec ID/Info               : Advanced Video Coding
    Duration                    : 25mn 15s
    Bit rate                    : 3 648 Kbps
    Maximum bit rate            : 19.7 Mbps
    Width                       : 1 920 pixels
    Height                      : 1 080 pixels
    Display aspect ratio        : 16:9
    Frame rate mode             : Constant
    Frame rate                  : 23.976 (24000/1001) fps
    Color space                 : YUV
    Chroma subsampling          : 4:2:0
    Bit depth                   : 8 bits
    Scan type                   : Progressive
    Bits/(Pixel*Frame)          : 0.073
    Stream size                 : 659 MiB (95%)
    Title                       : Video
    Writing library             : x264 core 146 r2538 121396c
    Encoding settings           : cabac=1 / ref=4 / deblock=1:1:1 / analyse=0x3:0x133 / me=umh / subme=10 / psy=1 / psy_rd=0.60:0.15 / mixed_ref=1 / me_range=24 / chroma_me=1 / trellis=2 / 8x8dct=1 / cqm=0 / deadzone=21,11 / fast_pskip=1 / chroma_qp_offset=-3 / threads=12 / lookahead_threads=1 / sliced_threads=0 / nr=0 / decimate=1 / interlaced=0 / bluray_compat=0 / constrained_intra=0 / bframes=5 / b_pyramid=2 / b_adapt=2 / b_bias=0 / direct=3 / weightb=1 / open_gop=0 / weightp=2 / keyint=250 / keyint_min=23 / scenecut=40 / intra_refresh=0 / rc_lookahead=60 / rc=crf / mbtree=0 / crf=18.0 / qcomp=0.60 / qpmin=0 / qpmax=69 / qpstep=4 / vbv_maxrate=25000 / vbv_bufsize=25000 / crf_max=0.0 / nal_hrd=none / filler=0 / ip_ratio=1.40 / pb_ratio=1.30 / aq=1:0.80
    Encoded date                : UTC 2016-04-08 18:37:46
    Tagged date                 : UTC 2016-04-08 18:37:59
    
    Audio
    ID                          : 2
    Format                      : AAC
    Format/Info                 : Advanced Audio Codec
    Format profile              : LC
    Codec ID                    : 40
    Duration                    : 25mn 16s
    Bit rate mode               : Variable
    Bit rate                    : 182 Kbps
    Maximum bit rate            : 232 Kbps
    Channel(s)                  : 2 channels
    Channel positions           : Front: L R
    Sampling rate               : 44.1 KHz
    Frame rate                  : 43.066 fps (1024 spf)
    Compression mode            : Lossy
    Stream size                 : 32.8 MiB (5%)
    Title                       : Japanese
    Language                    : Japanese
    Encoded date                : UTC 2016-04-08 17:48:55
    Tagged date                 : UTC 2016-04-08 18:37:59


    Alle Mirrors untereinander kompatibel
    Folgen einzeln ladbar
    Folge 11/25 online


    Download
    Geschützter Bereich - Bedanke dich beim Poster, um den Bereich sehen zu können
    Hier erfährst Du wie Du Dich bedanken kannst oder werde jetzt Premium Mitglied ab einer Spende von 5€ und erhalte sofortigen Zugriff auf den Downloadbereich!

    Geändert von Filbo11 (22. June 2016 um 09:15 Uhr) Grund: folge 10 & 11 hinzugefügt

    [Links sind nur für registrierte und aktivierte Nutzer sichtbar. Klicke hier um dich zu registrieren.]

    Ich wäre allen sehr dankbar, die mir gravierende Fehler in meinen Releases per PN melden

  4. 10 Benutzer sagen Danke:

    Androkai (17. April 2016),Asuka Langley (25. April 2016),Buze (10. April 2016),Conmar (24. June 2016),DjRayleigh (17. April 2016),foiderbua (9. April 2016),Freezy (12. June 2016),Goki.Grokus (9. June 2016),SONNYxq (9. April 2016),Wölfchen (17. April 2016)

  5. #3
    Uploader Avatar von Filbo11
    Registriert seit
    Jan 2015
    Beiträge
    926
    Punkte
    17.174
    Errungenschaften:
    TomodachisErste Gruppe1 Jahr registriertCreated Album picturesTagger First Class

    AW: Re: Zero Kara Hajimeru Isekai Seikatsu [Laufend][Jap-Dub][Ger-Sub][1080p][WebRip] - Morai

    folge 2 hinzugefügt

    [Links sind nur für registrierte und aktivierte Nutzer sichtbar. Klicke hier um dich zu registrieren.]

    Ich wäre allen sehr dankbar, die mir gravierende Fehler in meinen Releases per PN melden

  6. #4
    Uploader Avatar von Filbo11
    Registriert seit
    Jan 2015
    Beiträge
    926
    Punkte
    17.174
    Errungenschaften:
    TomodachisErste Gruppe1 Jahr registriertCreated Album picturesTagger First Class

    AW: Re: Zero Kara Hajimeru Isekai Seikatsu [Laufend][Jap-Dub][Ger-Sub][1080p][WebRip] - Morai

    folge 3 hinzugefügt

    [Links sind nur für registrierte und aktivierte Nutzer sichtbar. Klicke hier um dich zu registrieren.]

    Ich wäre allen sehr dankbar, die mir gravierende Fehler in meinen Releases per PN melden

  7. #5
    Uploader Avatar von Filbo11
    Registriert seit
    Jan 2015
    Beiträge
    926
    Punkte
    17.174
    Errungenschaften:
    TomodachisErste Gruppe1 Jahr registriertCreated Album picturesTagger First Class

    AW: Re: Zero Kara Hajimeru Isekai Seikatsu [Laufend][Jap-Dub][Ger-Sub][1080p][WebRip] - Morai

    folge 4-8 hinzugefügt

    [Links sind nur für registrierte und aktivierte Nutzer sichtbar. Klicke hier um dich zu registrieren.]

    Ich wäre allen sehr dankbar, die mir gravierende Fehler in meinen Releases per PN melden

  8. #6
    Uploader Avatar von Filbo11
    Registriert seit
    Jan 2015
    Beiträge
    926
    Punkte
    17.174
    Errungenschaften:
    TomodachisErste Gruppe1 Jahr registriertCreated Album picturesTagger First Class

    AW: Re: Zero Kara Hajimeru Isekai Seikatsu [Laufend][Jap-Dub][Ger-Sub][1080p][WebRip] - Morai

    folge 9 hinzugefügt

    [Links sind nur für registrierte und aktivierte Nutzer sichtbar. Klicke hier um dich zu registrieren.]

    Ich wäre allen sehr dankbar, die mir gravierende Fehler in meinen Releases per PN melden

  9. #7
    Uploader Avatar von Filbo11
    Registriert seit
    Jan 2015
    Beiträge
    926
    Punkte
    17.174
    Errungenschaften:
    TomodachisErste Gruppe1 Jahr registriertCreated Album picturesTagger First Class

    AW: Re: Zero Kara Hajimeru Isekai Seikatsu [Laufend][Jap-Dub][Ger-Sub][1080p][WebRip] - Morai

    folge 10 & 11 hinzugefügt

    [Links sind nur für registrierte und aktivierte Nutzer sichtbar. Klicke hier um dich zu registrieren.]

    Ich wäre allen sehr dankbar, die mir gravierende Fehler in meinen Releases per PN melden

Lesezeichen

Berechtigungen

  • Neue Themen erstellen: Nein
  • Themen beantworten: Nein
  • Anhänge hochladen: Nein
  • Beiträge bearbeiten: Nein
  •  

1 2 3 4 5 6 7 8 9 10 11 12 13 14 15 16 17 18 19 20 21 22 23 24 25 26 27 28 29 30 31 32 33 34 35 36 37 38 39 40 41 42 43 44 45 46 47 48 49 50 51 52 53 54 55 56 57 58 59 60 61 62 63 64 65 66 67 68 69 70 71 72 73 74 75 76 77 78 79 80 81 82 83 84 85 86 87 88 89 90 91 92 93 94 95 96 97 98 99 100 101 102 103 104 105 106 107 108 109 110 111 112 113 114 115 116 117 118 119 120 121 122 123 124 125 126 127 128 129 130 131 132 133 134 135 136 137 138 139 140 141 142 143 144 145 146 147 148 149 150 151 152 153 154 155 156 157 158