Ergebnis 1 bis 3 von 3

Thema: Re Zero kara Hajimeru Isekai Seikatsu [Laufend][Jap-Dub][Ger-Sub][720p-8Bit/10Bit][1080p-10Bit][BluRay] - Chinurarete Subs

Dieser Thread wurde noch nicht bewertet. Bewerte ihn doch, wenn er dir gefällt!
  1. #1
    Uploader Avatar von Filbo11
    Registriert seit
    Jan 2015
    Beiträge
    929
    Punkte
    17.234
    Errungenschaften:
    TomodachisErste Gruppe1 Jahr registriertCreated Album picturesTagger First Class

    Re Zero kara Hajimeru Isekai Seikatsu [Laufend][Jap-Dub][Ger-Sub][720p-8Bit/10Bit][1080p-10Bit][BluRay] - Chinurarete Subs

    Re: Zero Kara Hajimeru Isekai Seikatsu
    Re: ゼロから始める異世界生活
    Re:ZERO - Starting Life in Another World




    Beschreibung

    Subaru Natsuki hat die Fähigkeit, die Zeit zurückzuspulen und den Tod zu überwinden. Doch dies musste er auf qualvolle Weise herausfinden ‒ als er getötet wurde. Und hinzu kommt noch, dass er sich nach dem Zurückspulen nur an das erinnern kann, was seitdem passiert ist. Er war zuvor ein normaler Oberschüler, aber dann ist er in einer anderen Welt verlorengegangen und musste dort von einem schönen, silberhaarigen Mädchen gerettet werden. Nach dem Versuch, sich zu revanchieren, merkt Subaru erst, dass das Mädchen mit viel mehr belastet ist, als er sich hätte vorstellen können. Und dann griffen sie Feinde an, einer nach dem Anderen und bei den Angriffen wurden beide getötet …


    Format: mp4 [8Bit] / mkv [10Bit]
    Dauer: ca. 24 min
    Größe: ca. 335-515 MB [720p 8Bit] / 429-700 MB [720p 10Bit] / 630-930 MB [1080p 10Bit]
    Sprache: Japanisch
    Untertitel: Deutsch
    Group: [Chinurarete Subs]
    Hoster: Uploaded.net & Share-Online.biz
    kein PW


    Screenshots & MediaInfo

    720p 8Bit
    [Links sind nur für registrierte und aktivierte Nutzer sichtbar. Klicke hier um dich zu registrieren.]

    Code:
    General
    Complete name               : [Chinurarete_Subs]Re_Zero_kara_Hajimeru_Isekai_Seikatsu_01_8Bit_[BD_720p_AAC]_[3223968B].mp4
    Format                      : MPEG-4
    Format profile              : Base Media
    Codec ID                    : isom (isom)
    File size                   : 515 MiB
    Duration                    : 50 min
    Overall bit rate mode       : Variable
    Overall bit rate            : 1 434 kb/s
    Encoded date                : UTC 2016-10-09 07:52:05
    Tagged date                 : UTC 2016-10-09 07:52:05
    
    Video
    ID                          : 1
    Format                      : AVC
    Format/Info                 : Advanced Video Codec
    Format profile              : [email protected]
    Format settings, CABAC      : Yes
    Format settings, ReFrames   : 9 frames
    Codec ID                    : avc1
    Codec ID/Info               : Advanced Video Coding
    Duration                    : 50 min
    Bit rate                    : 1 233 kb/s
    Maximum bit rate            : 19.2 Mb/s
    Width                       : 1 280 pixels
    Height                      : 720 pixels
    Display aspect ratio        : 16:9
    Frame rate mode             : Constant
    Frame rate                  : 23.976 (24000/1001) FPS
    Original frame rate         : 29.970 (30000/1001) FPS
    Color space                 : YUV
    Chroma subsampling          : 4:2:0
    Bit depth                   : 8 bits
    Scan type                   : Progressive
    Bits/(Pixel*Frame)          : 0.056
    Stream size                 : 443 MiB (86%)
    Writing library             : x264 core 142 r2431+42 c69a006 tMod [[email protected] X86_64]
    Encoding settings           : cabac=1 / ref=9 / deblock=1:0:0 / analyse=0x1:0x131 / me=umh / subme=11 / psy=1 / fade_compensate=0.00 / psy_rd=1.00:0.00 / mixed_ref=1 / me_range=32 / chroma_me=1 / trellis=2 / 8x8dct=0 / cqm=0 / deadzone=21,11 / fast_pskip=0 / chroma_qp_offset=-2 / threads=12 / lookahead_threads=3 / sliced_threads=0 / nr=0 / decimate=0 / interlaced=0 / bluray_compat=0 / constrained_intra=0 / fgo=0 / bframes=16 / b_pyramid=2 / b_adapt=2 / b_bias=0 / direct=3 / weightb=1 / open_gop=0 / weightp=2 / keyint=250 / keyint_min=25 / scenecut=40 / intra_refresh=0 / rc_lookahead=250 / rc=crf / mbtree=1 / crf=16.0000 / qcomp=0.75 / qpmin=0:0:0 / qpmax=69:69:69 / qpstep=4 / ip_ratio=1.40 / aq=2:0.86 / aq-sensitivity=10.00 / aq-factor=1.00:1.00:1.00 / aq2=0 / aq3=0
    Encoded date                : UTC 2016-10-09 07:52:03
    Tagged date                 : UTC 2016-10-09 07:52:07
    Color range                 : Limited
    Color primaries             : BT.709
    Transfer characteristics    : BT.709
    Matrix coefficients         : BT.709
    
    Audio
    ID                          : 2
    Format                      : AAC
    Format/Info                 : Advanced Audio Codec
    Format profile              : LC
    Codec ID                    : 40
    Duration                    : 50 min
    Bit rate mode               : Variable
    Bit rate                    : 198 kb/s
    Maximum bit rate            : 231 kb/s
    Channel(s)                  : 2 channels
    Channel positions           : Front: L R
    Sampling rate               : 48.0 kHz
    Frame rate                  : 46.875 FPS (1024 spf)
    Compression mode            : Lossy
    Stream size                 : 71.1 MiB (14%)
    Encoded date                : UTC 2016-10-09 07:52:05
    Tagged date                 : UTC 2016-10-09 07:52:07
    
    Menu
    00:00:00.000                : Prolog
    00:02:30.025                : Hauptteil
    00:47:46.150                : Ending
    00:49:23.400                : Vorschau


    720p 10Bit
    [Links sind nur für registrierte und aktivierte Nutzer sichtbar. Klicke hier um dich zu registrieren.]

    Code:
    General
    
    Complete name               : [Chinurarete_Subs]Re_Zero_kara_Hajimeru_Isekai_Seikatsu_01_10Bit_[BD_720p_AAC]_[6E2DB5A9].mkv
    Format                      : Matroska
    Format version              : Version 4 / Version 2
    File size                   : 701 MiB
    Duration                    : 50 min
    Overall bit rate            : 1 958 kb/s
    Movie name                  : [Chinurarete Subs] Re;Zero kara Hajimeru Isekai Seikatsu - Folge 01 - Das Ende eines Anfangs und der Anfang vom Ende
    Encoded date                : UTC 2016-10-09 16:25:34
    Writing application         : mkvmerge v9.4.2 ('So High') 64bit
    Writing library             : libebml v1.3.4 + libmatroska v1.4.5
    Attachments                 : 00563.ttf / accid.ttf / Aver.ttf / BEBAS.TTF / BebasNeue.otf / BellGothicStd-Black.otf / blue highway d.ttf / BLUEHIGD.TTF / CENTURYO.TTF / CenturyOldStyleStd-Bold.otf / CenturyOldStyleStd-Italic.otf / CenturyOldStyleStd-Regular.otf / coolvetica rg_0.ttf / Duera-NormMedi-PERSONAL.ttf / Eboracum.ttf / GenAR102.TTF / gulim.ttc / journey.ttf / KleinsForgottenRoman.ttf / LinBiolinum_Rah.ttf / LinBiolinum_RBah.ttf / LinBiolinum_RIah.ttf / perfectly amicable.ttf / Rosario-Bold_0.ttf / Rosario-BoldItalic.otf / Rosario-BoldItalic_0.ttf / Rosario-Italic.ttf / Rosario-Regular.ttf / teen.ttf / Tinu・Road.ttf / VacerSansBoldPersonal.ttf / Vincentio.ttf / WeekdaysRomanSlant.ttf / Yataghan-Regular.otf
    
    Video
    ID                          : 1
    Format                      : AVC
    Format/Info                 : Advanced Video Codec
    Format profile              : High 4:4:4 [email protected]
    Format settings, CABAC      : Yes
    Format settings, ReFrames   : 16 frames
    Codec ID                    : V_MPEG4/ISO/AVC
    Duration                    : 50 min
    Width                       : 1 280 pixels
    Height                      : 720 pixels
    Display aspect ratio        : 16:9
    Frame rate mode             : Constant
    Frame rate                  : 23.976 (24000/1001) FPS
    Color space                 : YUV
    Chroma subsampling          : 4:4:4
    Bit depth                   : 10 bits
    Scan type                   : Progressive
    Title                       : Video
    Writing library             : x264 core 142 r2431+42 c69a006 tMod [[email protected] X86_64]
    Encoding settings           : cabac=1 / ref=16 / deblock=1:0:0 / analyse=0x3:0x133 / me=umh / subme=10 / psy=1 / fade_compensate=0.70 / psy_rd=0.70:0.08 / mixed_ref=1 / me_range=32 / chroma_me=1 / trellis=2 / 8x8dct=1 / cqm=0 / deadzone=21,11 / fast_pskip=0 / chroma_qp_offset=-2 / threads=12 / lookahead_threads=3 / sliced_threads=0 / nr=0 / decimate=0 / interlaced=0 / bluray_compat=0 / constrained_intra=0 / fgo=0 / bframes=16 / b_pyramid=2 / b_adapt=2 / b_bias=0 / direct=3 / weightb=1 / open_gop=0 / weightp=2 / keyint=250 / keyint_min=25 / scenecut=40 / intra_refresh=0 / rc_lookahead=70 / rc=crf / mbtree=1 / crf=16.0000 / qcomp=0.70 / qpmin=0:0:0 / qpmax=81:81:81 / qpstep=4 / ip_ratio=1.40 / aq=3:0.80 / aq-sensitivity=10.00 / aq-factor=1.00:1.00:1.00 / aq2=0 / aq3=0
    Language                    : German
    Default                     : Yes
    Forced                      : Yes
    Color range                 : Limited
    Matrix coefficients         : BT.709
    
    Audio
    ID                          : 2
    Format                      : AAC
    Format/Info                 : Advanced Audio Codec
    Format profile              : LC
    Codec ID                    : A_AAC
    Duration                    : 50 min
    Channel(s)                  : 2 channels
    Channel positions           : Front: L R
    Sampling rate               : 48.0 kHz
    Frame rate                  : 46.875 FPS (1024 spf)
    Compression mode            : Lossy
    Title                       : Audio
    Language                    : Japanese
    Default                     : Yes
    Forced                      : Yes
    
    Text #1
    ID                          : 3
    Format                      : ASS
    Codec ID                    : S_TEXT/ASS
    Codec ID/Info               : Advanced Sub Station Alpha
    Compression mode            : Lossless
    Title                       : Farbsub
    Language                    : German
    Default                     : Yes
    Forced                      : Yes
    
    Text #2
    ID                          : 4
    Format                      : ASS
    Codec ID                    : S_TEXT/ASS
    Codec ID/Info               : Advanced Sub Station Alpha
    Compression mode            : Lossless
    Title                       : Kein Farbsub
    Language                    : German
    Default                     : No
    Forced                      : No
    
    Menu
    00:00:00.000                : de:Prolog
    00:02:30.025                : de:Hauptteil
    00:47:33.142                : de:Ending
    00:49:10.030                : de:Vorschau


    1080p 10Bit
    [Links sind nur für registrierte und aktivierte Nutzer sichtbar. Klicke hier um dich zu registrieren.]

    Code:
    General
    
    Complete name               : [Chinurarete_Subs]Re_Zero_kara_Hajimeru_Isekai_Seikatsu_01_10Bit_[BD_1080p_FLAC]_[DDDFA7F2].mkv
    Format                      : Matroska
    Format version              : Version 4 / Version 2
    File size                   : 963 MiB
    Duration                    : 50 min
    Overall bit rate mode       : Variable
    Overall bit rate            : 2 690 kb/s
    Movie name                  : [Chinurarete Subs] Re;Zero kara Hajimeru Isekai Seikatsu - Folge 01 - Das Ende eines Anfangs und der Anfang vom Ende
    Encoded date                : UTC 2016-10-09 16:32:50
    Writing application         : mkvmerge v9.4.2 ('So High') 64bit
    Writing library             : libebml v1.3.4 + libmatroska v1.4.5
    Attachments                 : 00563.ttf / accid.ttf / Aver.ttf / BEBAS.TTF / BebasNeue.otf / BellGothicStd-Black.otf / blue highway d.ttf / BLUEHIGD.TTF / CENTURYO.TTF / CenturyOldStyleStd-Bold.otf / CenturyOldStyleStd-Italic.otf / CenturyOldStyleStd-Regular.otf / coolvetica rg_0.ttf / Duera-NormMedi-PERSONAL.ttf / Eboracum.ttf / GenAR102.TTF / gulim.ttc / journey.ttf / KleinsForgottenRoman.ttf / LinBiolinum_Rah.ttf / LinBiolinum_RBah.ttf / LinBiolinum_RIah.ttf / perfectly amicable.ttf / Rosario-Bold_0.ttf / Rosario-BoldItalic.otf / Rosario-BoldItalic_0.ttf / Rosario-Italic.ttf / Rosario-Regular.ttf / teen.ttf / Tinu・Road.ttf / VacerSansBoldPersonal.ttf / Vincentio.ttf / WeekdaysRomanSlant.ttf / Yataghan-Regular.otf
    
    Video
    ID                          : 1
    Format                      : AVC
    Format/Info                 : Advanced Video Codec
    Format profile              : High [email protected]
    Format settings, CABAC      : Yes
    Format settings, ReFrames   : 16 frames
    Codec ID                    : V_MPEG4/ISO/AVC
    Duration                    : 50 min
    Bit rate                    : 1 955 kb/s
    Width                       : 1 920 pixels
    Height                      : 1 080 pixels
    Display aspect ratio        : 16:9
    Frame rate mode             : Constant
    Frame rate                  : 23.976 (24000/1001) FPS
    Color space                 : YUV
    Chroma subsampling          : 4:2:0
    Bit depth                   : 10 bits
    Scan type                   : Progressive
    Bits/(Pixel*Frame)          : 0.039
    Stream size                 : 700 MiB (73%)
    Title                       : Video
    Writing library             : x264 core 142 r2431+42 c69a006 tMod [[email protected] X86_64]
    Encoding settings           : cabac=1 / ref=16 / deblock=1:0:0 / analyse=0x3:0x133 / me=umh / subme=11 / psy=1 / fade_compensate=0.00 / psy_rd=0.80:0.10 / mixed_ref=1 / me_range=32 / chroma_me=1 / trellis=2 / 8x8dct=1 / cqm=0 / deadzone=21,11 / fast_pskip=0 / chroma_qp_offset=-3 / threads=12 / lookahead_threads=3 / sliced_threads=0 / nr=0 / decimate=0 / interlaced=0 / bluray_compat=0 / constrained_intra=0 / fgo=0 / bframes=16 / b_pyramid=2 / b_adapt=2 / b_bias=0 / direct=3 / weightb=1 / open_gop=1 / weightp=2 / keyint=250 / keyint_min=23 / scenecut=40 / intra_refresh=0 / rc_lookahead=250 / rc=crf / mbtree=1 / crf=16.0000 / qcomp=0.75 / qpmin=0:0:0 / qpmax=81:81:81 / qpstep=4 / ip_ratio=1.40 / aq=4:0.80 / aq-sensitivity=10.00 / aq-factor=1.00:1.00:1.00 / aq2=0 / aq3=0
    Language                    : German
    Default                     : Yes
    Forced                      : Yes
    Color range                 : Limited
    Color primaries             : BT.709
    Transfer characteristics    : BT.709
    Matrix coefficients         : BT.709
    
    Audio
    ID                          : 2
    Format                      : FLAC
    Format/Info                 : Free Lossless Audio Codec
    Codec ID                    : A_FLAC
    Duration                    : 50 min
    Bit rate mode               : Variable
    Bit rate                    : 680 kb/s
    Channel(s)                  : 2 channels
    Channel positions           : Front: L R
    Sampling rate               : 48.0 kHz
    Frame rate                  : 11.719 FPS (4096 spf)
    Bit depth                   : 16 bits
    Stream size                 : 243 MiB (25%)
    Title                       : Audio
    Writing library             : libFLAC 1.2.1 (UTC 2007-09-17)
    Language                    : Japanese
    Default                     : Yes
    Forced                      : Yes
    
    Text #1
    ID                          : 3
    Format                      : ASS
    Codec ID                    : S_TEXT/ASS
    Codec ID/Info               : Advanced Sub Station Alpha
    Duration                    : 49 min
    Bit rate                    : 2 166 b/s
    Count of elements           : 5774
    Compression mode            : Lossless
    Stream size                 : 792 KiB (0%)
    Title                       : Farbsub
    Language                    : German
    Default                     : Yes
    Forced                      : Yes
    
    Text #2
    ID                          : 4
    Format                      : ASS
    Codec ID                    : S_TEXT/ASS
    Codec ID/Info               : Advanced Sub Station Alpha
    Duration                    : 49 min
    Bit rate                    : 2 167 b/s
    Count of elements           : 5774
    Compression mode            : Lossless
    Stream size                 : 792 KiB (0%)
    Title                       : Kein Farbsub
    Language                    : German
    Default                     : No
    Forced                      : No
    
    Menu
    00:00:00.000                : de:Prolog
    00:02:30.025                : de:Hauptteil
    00:47:33.142                : de:Ending
    00:49:10.030                : de:Vorschau


    Alle Mirrors untereinander kompatibel
    Folgen einzeln ladbar
    Folge 8/25 online


    Download
    Geschützter Bereich - Bedanke dich beim Poster, um den Bereich sehen zu können
    Hier erfährst Du wie Du Dich bedanken kannst oder werde jetzt Premium Mitglied ab einer Spende von 5€ und erhalte sofortigen Zugriff auf den Downloadbereich!

    Geändert von Filbo11 (17. November 2016 um 06:10 Uhr) Grund: folge 6-8 hinzugefügt

    [Links sind nur für registrierte und aktivierte Nutzer sichtbar. Klicke hier um dich zu registrieren.]

    Ich wäre allen sehr dankbar, die mir gravierende Fehler in meinen Releases per PN melden

  2. 14 Benutzer sagen Danke:

    Bunyos (17. November 2016),Cande (10. October 2016),CherryLarry (11. November 2016),Conmar (7. November 2016),Fatestaynight (10. November 2016),HannesLN (17. November 2016),imnuan (25. October 2016),mccharly (14. November 2016),OtakuTim (12. October 2016),piggsylol (16. October 2016),Regi (17. November 2016),Ronae (18. October 2016),Sandy7580 (17. November 2016),Tenma90 (15. October 2016)

  3. #2
    Uploader Avatar von Filbo11
    Registriert seit
    Jan 2015
    Beiträge
    929
    Punkte
    17.234
    Errungenschaften:
    TomodachisErste Gruppe1 Jahr registriertCreated Album picturesTagger First Class

    AW: Re Zero kara Hajimeru Isekai Seikatsu [Laufend][Jap-Dub][Ger-Sub][720p-8Bit/10Bit][1080p-10Bit][BluRay] - Chinurarete Subs

    folge 3-5 hinzugefügt
    folge 1 und 2 gegen v2 getauscht

    [Links sind nur für registrierte und aktivierte Nutzer sichtbar. Klicke hier um dich zu registrieren.]

    Ich wäre allen sehr dankbar, die mir gravierende Fehler in meinen Releases per PN melden

  4. #3
    Uploader Avatar von Filbo11
    Registriert seit
    Jan 2015
    Beiträge
    929
    Punkte
    17.234
    Errungenschaften:
    TomodachisErste Gruppe1 Jahr registriertCreated Album picturesTagger First Class

    AW: Re Zero kara Hajimeru Isekai Seikatsu [Laufend][Jap-Dub][Ger-Sub][720p-8Bit/10Bit][1080p-10Bit][BluRay] - Chinurarete Subs

    folge 6-8 hinzugefügt

    [Links sind nur für registrierte und aktivierte Nutzer sichtbar. Klicke hier um dich zu registrieren.]

    Ich wäre allen sehr dankbar, die mir gravierende Fehler in meinen Releases per PN melden

Stichworte

Lesezeichen

Berechtigungen

  • Neue Themen erstellen: Nein
  • Themen beantworten: Nein
  • Anhänge hochladen: Nein
  • Beiträge bearbeiten: Nein
  •  

1 2 3 4 5 6 7 8 9 10 11 12 13 14 15 16 17 18 19 20 21 22 23 24 25 26 27 28 29 30 31 32 33 34 35 36 37 38 39 40 41 42 43 44 45 46 47 48 49 50 51 52 53 54 55 56 57 58 59 60 61 62 63 64 65 66 67 68 69 70 71 72 73 74 75 76 77 78 79 80 81 82 83 84 85 86 87 88 89 90 91 92 93 94 95 96 97 98 99 100 101 102 103 104 105 106 107 108 109 110 111 112 113 114 115 116 117 118 119 120 121 122 123 124 125 126 127 128 129 130 131 132 133 134 135 136 137 138 139 140 141 142 143 144 145 146 147 148 149 150 151 152 153 154 155 156 157 158