Ergebnis 1 bis 1 von 1

Thema: Rekka no Honoo [Jap-Dub][Ger-Sub][480p][DVDRip]-LS-Subs

Dieser Thread wurde noch nicht bewertet. Bewerte ihn doch, wenn er dir gefällt!
  1. #1
    United we Stand Avatar von 00Ryuji00
    Registriert seit
    Oct 2012
    Beiträge
    3.896
    Punkte
    99.666
    Errungenschaften:
    TomodachisGang LeaderHikikomoriTagger Amateur50000 Erfahrungspunkte

    Rekka no Honoo [Jap-Dub][Ger-Sub][480p][DVDRip]-LS-Subs


    Rekka no Honoo
    Flame of Recca






    Kurzbeschreibung:
    Zitat Zitat von AniSearch.com
    Hanabishi Recca ist ein Ninja, der fast durch einen Unfall getötet wurde. Ein Mädchen namens Yanagi heilt ihn mit Hilfe ihrer besonderen Kräfte. Später werden die Beiden von einer Frau aufgespürt, welche die beiden attackiert. Sie fordert ihn auf, seine Flamme zu entzünden. Aber er hat keine Ahnung wovon sie spricht. In dem Augenblick, als diese Frau Yanagi attackiert, entfacht Recca eine mächtige Flamme in Richtung der Frau. Sie freut sich das zu sehen. Es kommt heraus, dass Recca ein Kind des ehemaligen Hokage Klan ist, das in die Zukunft geschickt wurde, um so dem Tod zu entgehen. Recca wird zum Anführer des neuen Hokage Klan und muss seinen Halbbruder davon abhalten Yanagi zu entführen.


    Spieldauer: 23min
    Genre: Fighting-Shounen
    Nebengenres: Abenteuer, Action, Fantasy, Fighting-Shounen, Komödie
    Jahr: 1997
    Sprache: Japanisch
    Untertitel: Deutsch
    Größe pro Folge: ~213 MiB
    Episodenanzahl: 42 /42
    Format: MP4
    Auflösung: 480p (4:3)
    Videocodec: x264 (AVC)
    Audiocodec: AAC
    Releasegruppe: LS-Subs
    Hoster: Share-Online, Uploaded


    MediaInfo
    Code:
    
    Format                                   : MPEG-4
    Format profile                           : Base Media
    Codec ID                                 : isom
    File size                                : 213 MiB
    Duration                                 : 23mn 4s
    Overall bit rate mode                    : Variable
    Overall bit rate                         : 1 289 Kbps
    Encoded date                             : UTC 2014-10-14 12:05:02
    Tagged date                              : UTC 2014-10-14 12:05:02
    Writing application                      : My MP4Box GUI 0.6.0.6 <http://my-mp4box-gui.zymichost.com>
    
    Video
    ID                                       : 1
    Format                                   : AVC
    Format/Info                              : Advanced Video Codec
    Format profile                           : [email protected]
    Format settings, CABAC                   : Yes
    Format settings, ReFrames                : 10 frames
    Codec ID                                 : avc1
    Codec ID/Info                            : Advanced Video Coding
    Duration                                 : 23mn 4s
    Bit rate                                 : 1 122 Kbps
    Maximum bit rate                         : 10.3 Mbps
    Width                                    : 640 pixels
    Height                                   : 480 pixels
    Display aspect ratio                     : 4:3
    Frame rate mode                          : Constant
    Frame rate                               : 59.940 fps
    Color space                              : YUV
    Chroma subsampling                       : 4:2:0
    Bit depth                                : 8 bits
    Scan type                                : Progressive
    Bits/(Pixel*Frame)                       : 0.061
    Stream size                              : 185 MiB (87%)
    Title                                    : encode.h264
    Writing library                          : x264 core 133 r2334 a3ac64b
    Encoding settings                        : cabac=1 / ref=10 / deblock=1:1:1 / analyse=0x1:0x111 / me=umh / subme=8 / psy=1 / psy_rd=0.40:0.00 / mixed_ref=1 / me_range=16 / chroma_me=1 / trellis=1 / 8x8dct=0 / cqm=0 / deadzone=21,11 / fast_pskip=1 / chroma_qp_offset=-2 / threads=12 / lookahead_threads=3 / sliced_threads=0 / nr=0 / decimate=1 / interlaced=0 / bluray_compat=0 / constrained_intra=0 / bframes=5 / b_pyramid=2 / b_adapt=2 / b_bias=0 / direct=3 / weightb=1 / open_gop=0 / weightp=2 / keyint=250 / keyint_min=25 / scenecut=40 / intra_refresh=0 / rc_lookahead=50 / rc=crf / mbtree=1 / crf=20.0 / qcomp=0.60 / qpmin=0 / qpmax=69 / qpstep=4 / ip_ratio=1.40 / aq=1:0.60
    Encoded date                             : UTC 2014-10-14 12:05:02
    Tagged date                              : UTC 2014-10-14 12:05:13
    
    Audio
    ID                                       : 2
    Format                                   : AAC
    Format/Info                              : Advanced Audio Codec
    Format profile                           : LC
    Codec ID                                 : 40
    Duration                                 : 23mn 4s
    Bit rate mode                            : Variable
    Bit rate                                 : 160 Kbps
    Maximum bit rate                         : 198 Kbps
    Channel(s)                               : 2 channels
    Channel positions                        : Front: L R
    Sampling rate                            : 48.0 KHz
    Compression mode                         : Lossy
    Stream size                              : 26.4 MiB (12%)
    Title                                    : RnH-01-audio.aac
    Encoded date                             : UTC 2014-10-14 12:05:11
    Tagged date                              : UTC 2014-10-14 12:05:13
    
    






    Geschützter Bereich - Bedanke dich beim Poster, um den Bereich sehen zu können
    Hier erfährst Du wie Du Dich bedanken kannst oder werde jetzt Premium Mitglied ab einer Spende von 5€ und erhalte sofortigen Zugriff auf den Downloadbereich!



    [Links sind nur für registrierte und aktivierte Nutzer sichtbar. Klicke hier um dich zu registrieren.]
    Geändert von so1k (12. October 2016 um 20:50 Uhr)
    !!!Alle Anliegen bezüglich Uploads werden nur mit direktem Threadlink zum Angebot bearbeitet!!!

    Re-Uploadanfragen nur per PN - Ihr könnt mir auch Listen schicken

    Re-Uploads erfolgen meist innerhalb 24h, kann aber auch bis zu 7 Tage dauern

    [Links sind nur für registrierte und aktivierte Nutzer sichtbar. Klicke hier um dich zu registrieren.] | [Links sind nur für registrierte und aktivierte Nutzer sichtbar. Klicke hier um dich zu registrieren.] | >[Links sind nur für registrierte und aktivierte Nutzer sichtbar. Klicke hier um dich zu registrieren.]<
    [Links sind nur für registrierte und aktivierte Nutzer sichtbar. Klicke hier um dich zu registrieren.]

  2. 17 Benutzer sagen Danke:

    Aikanary (22. March 2016),Akulti (1. February 2016),Antipott (23. February 2016),classius (20. April 2016),dreambird1973 (29. June 2016),Etzlo (28. March 2016),Hisamaki (6. February 2016),kadaj93 (3. February 2016),Magikarp (Heute),midnighter (7. February 2016),Nanashi (25. March 2016),old nick (1. February 2016),Paulus (1. February 2016),Raphael96 (22. April 2016),realmadridcf (2. February 2016),Roku6 (21. April 2016),YamiXGhost (1. February 2016)

Lesezeichen

Berechtigungen

  • Neue Themen erstellen: Nein
  • Themen beantworten: Nein
  • Anhänge hochladen: Nein
  • Beiträge bearbeiten: Nein
  •  

1 2 3 4 5 6 7 8 9 10 11 12 13 14 15 16 17 18 19 20 21 22 23 24 25 26 27 28 29 30 31 32 33 34 35 36 37 38 39 40 41 42 43 44 45 46 47 48 49 50 51 52 53 54 55 56 57 58 59 60 61 62 63 64 65 66 67 68 69 70 71 72 73 74 75 76 77 78 79 80 81 82 83 84 85 86 87 88 89 90 91 92 93 94 95 96 97 98 99 100 101 102 103 104 105 106 107 108 109 110 111 112 113 114 115 116 117 118 119 120 121 122 123 124 125 126 127 128 129 130 131 132 133 134 135 136 137 138 139 140 141 142 143 144 145 146 147 148 149 150 151 152 153 154 155 156 157 158