Ergebnis 1 bis 1 von 1

Thema: Robotics;Notes [Jap-Dub][Ger-Sub][720p][HDTV]

Dieser Thread wurde noch nicht bewertet. Bewerte ihn doch, wenn er dir gefällt!
  1. #1
    United we Stand Avatar von 00Ryuji00
    Registriert seit
    Oct 2012
    Beiträge
    3.902
    Punkte
    100.092
    Errungenschaften:
    TomodachisGang LeaderHikikomoriTagger Amateur50000 Erfahrungspunkte

    Robotics;Notes [Jap-Dub][Ger-Sub][720p][HDTV]


    Robotics;Notes
    ロボティクス・ノーツ






    Kurzbeschreibung:
    Zitat Zitat von AniSearch.com
    Im Jahre 2009 wurde Tokios Shibuya-Distrikt vollkommen zerstört, ein Jahr später folgte der Radio Kaikan-Komplex in Akihabara. Um der Bevölkerung das Vergessen der Ereignisse zu erleichtern und sie von Sorgen zu befreien, werden 2019 erstmals Geräte geschaffen, die es ermöglichen, vollkommen in eine virtuelle Realität abzutauchen. Diese Möglichkeit zur Flucht vom Alltag nutzen die Menschen gern und es durchdringt bald alle Gesellschaftsschichten...Außer einem kleinen Wissenschaftsclub, der kurz vor der Auflösung steht, weil nur noch zwei Mitglieder aktiv teilnehmen. Die einzige Hoffnung für den Club steckt in ihrem neusten Roboter. Dabei ahnen die Freunde noch nicht, dass es bald mehr als nur eine Arbeitsgemeinschaft zu retten gibt.


    Spieldauer: 23min
    Genre: Thriller
    Nebengenres: Drama, Mecha, Mystery, Männlich, Sci-Fi, Thriller
    Jahr: 2012
    Sprache: Japanisch
    Untertitel: Deutsch
    Größe pro Folge: 350 MB
    Episodenanzahl: 22/22
    Format: mp4
    Auflösung: 720p (16:9)
    Videocodec: x264 (AVC)
    Audiocodec: AAC
    Releasegruppe: Chinurarete-Subs
    Hoster: Share-Online, Uploaded


    MediaInfo
    Code:
    
    Format                                   : MPEG-4
    Format profile                           : Base Media
    Codec ID                                 : isom
    File size                                : 376 MiB
    Duration                                 : 22mn 54s
    Overall bit rate mode                    : Variable
    Overall bit rate                         : 2 296 Kbps
    Encoded date                             : UTC 2012-10-12 11:58:26
    Tagged date                              : UTC 2012-10-12 11:58:26
    Writing application                      : Yamb 2.1.0.0 [http://yamb.unite-video.com]
    
    Video
    ID                                       : 1
    Format                                   : AVC
    Format/Info                              : Advanced Video Codec
    Format profile                           : [email protected]
    Format settings, CABAC                   : Yes
    Format settings, ReFrames                : 4 frames
    Codec ID                                 : avc1
    Codec ID/Info                            : Advanced Video Coding
    Duration                                 : 22mn 54s
    Bit rate                                 : 2 103 Kbps
    Maximum bit rate                         : 26.0 Mbps
    Width                                    : 1 280 pixels
    Height                                   : 720 pixels
    Display aspect ratio                     : 16:9
    Frame rate mode                          : Constant
    Frame rate                               : 23.976 fps
    Color space                              : YUV
    Chroma subsampling                       : 4:2:0
    Bit depth                                : 8 bits
    Scan type                                : Progressive
    Bits/(Pixel*Frame)                       : 0.095
    Stream size                              : 345 MiB (92%)
    Writing library                          : x264 core 125 r2200+677M 3a754e7
    Encoding settings                        : cabac=1 / ref=3 / deblock=1:0:0 / analyse=0x3:0x113 / me=umh / subme=7 / psy=1 / fade_compensate=0.00 / psy_rd=1.00:0.00 / mixed_ref=1 / me_range=16 / chroma_me=1 / trellis=1 / 8x8dct=1 / cqm=0 / deadzone=21,11 / fast_pskip=1 / chroma_qp_offset=-2 / threads=6 / lookahead_threads=1 / sliced_threads=0 / nr=0 / decimate=1 / interlaced=0 / bluray_compat=0 / constrained_intra=0 / fgo=0 / bframes=3 / b_pyramid=2 / b_adapt=1 / b_bias=0 / direct=1 / weightb=1 / open_gop=0 / weightp=2 / keyint=240 / keyint_min=23 / scenecut=40 / intra_refresh=0 / rc=crf / mbtree=0 / crf=20.0000 / qcomp=0.60 / qpmin=0 / qpmax=69 / qpstep=4 / ip_ratio=1.40 / pb_ratio=1.30 / aq=1:1.20
    Encoded date                             : UTC 2012-10-13 11:48:15
    Tagged date                              : UTC 2012-10-12 11:58:39
    
    Audio
    ID                                       : 2
    Format                                   : AAC
    Format/Info                              : Advanced Audio Codec
    Format profile                           : LC
    Codec ID                                 : 40
    Duration                                 : 22mn 54s
    Bit rate mode                            : Variable
    Bit rate                                 : 192 Kbps
    Channel count                            : 2 channels
    Channel positions                        : Front: L R
    Sampling rate                            : 48.0 KHz
    Compression mode                         : Lossy
    Stream size                              : 30.9 MiB (8%)
    Encoded date                             : UTC 2012-10-12 11:58:38
    Tagged date                              : UTC 2012-10-12 11:58:39
    
    





    Geschützter Bereich - Bedanke dich beim Poster, um den Bereich sehen zu können
    Hier erfährst Du wie Du Dich bedanken kannst oder werde jetzt Premium Mitglied ab einer Spende von 5€ und erhalte sofortigen Zugriff auf den Downloadbereich!

    !!!Alle Anliegen bezüglich Uploads werden nur mit direktem Threadlink zum Angebot bearbeitet!!!

    Re-Uploadanfragen nur per PN - Ihr könnt mir auch Listen schicken

    Re-Uploads folgen nach Anfrage meist am Wochenende

    [Links sind nur für registrierte und aktivierte Nutzer sichtbar. Klicke hier um dich zu registrieren.] | [Links sind nur für registrierte und aktivierte Nutzer sichtbar. Klicke hier um dich zu registrieren.] | >[Links sind nur für registrierte und aktivierte Nutzer sichtbar. Klicke hier um dich zu registrieren.]<
    [Links sind nur für registrierte und aktivierte Nutzer sichtbar. Klicke hier um dich zu registrieren.]

  2. 16 Benutzer sagen Danke:

    Aluaran (10. August 2015),archonize (10. August 2015),Attila494 (8. April 2016),Corntendo (13. February 2016),Flossel (24. October 2015),huntercity (10. August 2015),Kokujou (10. August 2015),LostRay (11. February 2016),Lubastos (17. September 2015),midnighter (13. August 2015),Modell_Thomas (21. March 2016),Nanatzusaya (10. August 2015),prinzvegeta (9. August 2015),Scorns (25. December 2015),SONNYxq (9. August 2015),wasweisich (1. October 2015)

Lesezeichen

Berechtigungen

  • Neue Themen erstellen: Nein
  • Themen beantworten: Nein
  • Anhänge hochladen: Nein
  • Beiträge bearbeiten: Nein
  •  

1 2 3 4 5 6 7 8 9 10 11 12 13 14 15 16 17 18 19 20 21 22 23 24 25 26 27 28 29 30 31 32 33 34 35 36 37 38 39 40 41 42 43 44 45 46 47 48 49 50 51 52 53 54 55 56 57 58 59 60 61 62 63 64 65 66 67 68 69 70 71 72 73 74 75 76 77 78 79 80 81 82 83 84 85 86 87 88 89 90 91 92 93 94 95 96 97 98 99 100 101 102 103 104 105 106 107 108 109 110 111 112 113 114 115 116 117 118 119 120 121 122 123 124 125 126 127 128 129 130 131 132 133 134 135 136 137 138 139 140 141 142 143 144 145 146 147 148 149 150 151 152 153 154 155 156 157 158