Ergebnis 1 bis 1 von 1

Thema: Saiunkoku Monogatari [Jap-Dub][Ger-Sub][480p][DVDRip] - FA

Dieser Thread wurde noch nicht bewertet. Bewerte ihn doch, wenn er dir gefällt!
  1. #1
    Uploader Avatar von Filbo11
    Registriert seit
    Jan 2015
    Beiträge
    931
    Punkte
    17.255
    Errungenschaften:
    TomodachisErste Gruppe1 Jahr registriertCreated Album picturesTagger First Class

    Saiunkoku Monogatari [Jap-Dub][Ger-Sub][480p][DVDRip] - FA

    Saiunkoku Monogatari
    彩雲国物語
    The Story of Saiunkoku




    Beschreibung

    Vor langer Zeit, als sich die Welt in einer vom Krieg zerrütteten Ära befand, gab es einen jungen Mann, welcher sich dem Bösen entgegenstellte, begleitet vom Willen der Leute in seinem Herzen. Der Mann, der unter vielen Namen bekannt war, erlangte bald die geheimnisvollen Kräfte der acht Weisen. Sein Name war Sougen. Indem er sich das Wissen der acht Weisen zunutze machte, brach schon bald ein neuer Morgen für die Welt an. Er war der erste Kaiser des Saiun Reiches. Die acht Weisen versteckten sich wieder nach seinem Tode, doch Gerüchte besagen, dass sie sich unter das Volk gemischt haben und noch heute mitten unter uns leben.


    Format: MP4
    Dauer: ca. 25 min
    Größe: ca. 170 MB (gesamt: 6,49 GB)
    Episodenanzahl: 39/39
    Sprache: Japanisch
    Untertitel: Deutsch
    Group: [FA]
    Hoster: Uploaded.net & Share-Online.biz
    kein PW


    Screenshots & MediaInfo

    Spoiler
    [Links sind nur für registrierte und aktivierte Nutzer sichtbar. Klicke hier um dich zu registrieren.]

    Code:
    General
    Complete name               : [FA].Saiunkoku.Monogatari.01.[hq,x264,aac,ger.sub]_1B7D9C22.mp4
    Format                      : MPEG-4
    Format profile              : Base Media
    Codec ID                    : isom
    File size                   : 171 MiB
    Duration                    : 25mn 1s
    Overall bit rate mode       : Variable
    Overall bit rate            : 953 Kbps
    Encoded date                : UTC 2012-11-28 23:10:38
    Tagged date                 : UTC 2012-11-28 23:10:38
    
    Video
    ID                          : 1
    Format                      : AVC
    Format/Info                 : Advanced Video Codec
    Format profile              : [email protected]
    Format settings, CABAC      : Yes
    Format settings, ReFrames   : 16 frames
    Codec ID                    : avc1
    Codec ID/Info               : Advanced Video Coding
    Duration                    : 25mn 1s
    Bit rate                    : 821 Kbps
    Maximum bit rate            : 5 288 Kbps
    Width                       : 848 pixels
    Height                      : 480 pixels
    Display aspect ratio        : 16:9
    Frame rate mode             : Constant
    Frame rate                  : 23.976 fps
    Color space                 : YUV
    Chroma subsampling          : 4:2:0
    Bit depth                   : 8 bits
    Scan type                   : Progressive
    Bits/(Pixel*Frame)          : 0.084
    Stream size                 : 147 MiB (86%)
    Writing library             : x264 core 116 r2074 2641b9e
    Encoding settings           : cabac=1 / ref=16 / deblock=1:1:1 / analyse=0x3:0x133 / me=umh / subme=9 / psy=1 / psy_rd=0.40:0.00 / mixed_ref=1 / me_range=16 / chroma_me=1 / trellis=2 / 8x8dct=1 / cqm=0 / deadzone=21,11 / fast_pskip=1 / chroma_qp_offset=-2 / threads=12 / sliced_threads=0 / nr=0 / decimate=1 / interlaced=0 / bluray_compat=0 / constrained_intra=0 / bframes=5 / b_pyramid=2 / b_adapt=2 / b_bias=0 / direct=3 / weightb=1 / open_gop=0 / weightp=2 / keyint=250 / keyint_min=23 / scenecut=40 / intra_refresh=0 / rc_lookahead=60 / rc=2pass / mbtree=1 / bitrate=821 / ratetol=1.0 / qcomp=0.60 / qpmin=10 / qpmax=51 / qpstep=4 / cplxblur=20.0 / qblur=0.5 / vbv_maxrate=24000 / vbv_bufsize=24000 / nal_hrd=none / ip_ratio=1.40 / aq=1:0.60
    Encoded date                : UTC 2012-11-28 23:10:38
    Tagged date                 : UTC 2012-11-28 23:10:40
    
    Audio
    ID                          : 2
    Format                      : AAC
    Format/Info                 : Advanced Audio Codec
    Format profile              : LC
    Codec ID                    : 40
    Duration                    : 25mn 1s
    Bit rate mode               : Variable
    Bit rate                    : 128 Kbps
    Maximum bit rate            : 248 Kbps
    Channel(s)                  : 2 channels
    Channel positions           : Front: L R
    Sampling rate               : 44.1 KHz
    Compression mode            : Lossy
    Stream size                 : 22.9 MiB (13%)
    Encoded date                : UTC 2012-11-28 23:10:40
    Tagged date                 : UTC 2012-11-28 23:10:40


    Alle Mirrors untereinander kompatibel
    Folgen einzeln ladbar


    Download
    Geschützter Bereich - Bedanke dich beim Poster, um den Bereich sehen zu können
    Hier erfährst Du wie Du Dich bedanken kannst oder werde jetzt Premium Mitglied ab einer Spende von 5€ und erhalte sofortigen Zugriff auf den Downloadbereich!



    Geändert von so1k (12. October 2016 um 20:13 Uhr)

    [Links sind nur für registrierte und aktivierte Nutzer sichtbar. Klicke hier um dich zu registrieren.]

    Ich wäre allen sehr dankbar, die mir gravierende Fehler in meinen Releases per PN melden

  2. 7 Benutzer sagen Danke:

    Akio (17. January 2016),Drachengott (18. January 2016),freyaXI (23. October 2016),midnighter (23. December 2015),Sakamoto (26. December 2015),Tekk (15. December 2015),tokyodrift (24. December 2015)

Stichworte

Lesezeichen

Berechtigungen

  • Neue Themen erstellen: Nein
  • Themen beantworten: Nein
  • Anhänge hochladen: Nein
  • Beiträge bearbeiten: Nein
  •  

1 2 3 4 5 6 7 8 9 10 11 12 13 14 15 16 17 18 19 20 21 22 23 24 25 26 27 28 29 30 31 32 33 34 35 36 37 38 39 40 41 42 43 44 45 46 47 48 49 50 51 52 53 54 55 56 57 58 59 60 61 62 63 64 65 66 67 68 69 70 71 72 73 74 75 76 77 78 79 80 81 82 83 84 85 86 87 88 89 90 91 92 93 94 95 96 97 98 99 100 101 102 103 104 105 106 107 108 109 110 111 112 113 114 115 116 117 118 119 120 121 122 123 124 125 126 127 128 129 130 131 132 133 134 135 136 137 138 139 140 141 142 143 144 145 146 147 148 149 150 151 152 153 154 155 156 157 158