Ergebnis 1 bis 1 von 1

Thema: Seikimatsu Occult Gakuin [Jap-Dub][Ger-Sub][720p][HDTV]

Dieser Thread wurde noch nicht bewertet. Bewerte ihn doch, wenn er dir gefällt!
  1. #1
    United we Stand Avatar von 00Ryuji00
    Registriert seit
    Oct 2012
    Beiträge
    3.902
    Punkte
    100.019
    Errungenschaften:
    TomodachisGang LeaderHikikomoriTagger Amateur50000 Erfahrungspunkte

    Seikimatsu Occult Gakuin [Jap-Dub][Ger-Sub][720p][HDTV]

    Seikimatsu Occult Gakuin
    世紀末オカルト学院
    Occult Academy






    Kurzbeschreibung:
    Nostradamus sagte einst voraus, dass im siebten Monat des Jahres 1999 ein Schreckenskönig vom Himmel kommen und den großen König von Angoulmois wiederauferstehen lassen wird. Jetzt, Ende des Millenniums, beginnen sich an der riesigen, festungsartigen Waldstein-Akademie die übernatürlichen Vorfälle zu häufen, was ihrem Ruf als „Okkult-Akademie“ alle Ehre macht. Die 17-jährige Maya Kumashiro, die alles Okkulte öffentlich ablehnt, kehrt nach dem Tod ihres Vaters, dem Direktor der Akademie, an diese zurück und wird sofort mit mysterösen, paranormalen Ereignissen konfrontiert. Bei ihrer Suche nach den Ursachen erhält sie Unterstützung vom 23-jährigen Fumiaki Uchida, dessen eigener Hintergrund nicht minder abnormal ist.


    Sprache: Japanisch
    Untertitel: Deutsch
    Episodenanzahl: 13/13
    Format: .mp4
    Auflösung: 720p (16:9)
    Codec: x264
    Gruppe: BNFs
    Hoster: Share-Online ; Uploaded


    Datei Info:
    Spoiler

    Code:
    
    
    Format                                   : MPEG-4
    Format profile                           : Base Media
    Codec ID                                 : isom
    File size                                : 200 MiB
    Duration                                 : 24mn 39s
    Overall bit rate mode                    : Variable
    Overall bit rate                         : 1 132 Kbps
    Encoded date                             : UTC 2010-08-02 01:54:41
    Tagged date                              : UTC 2010-08-02 01:54:41
    Writing application                      : Yamb 2.1.0.0 [http://yamb.unite-video.com]
    
    Video
    ID                                       : 1
    Format                                   : AVC
    Format/Info                              : Advanced Video Codec
    Format profile                           : [email protected]
    Format settings, CABAC                   : Yes
    Format settings, ReFrames                : 8 frames
    Codec ID                                 : avc1
    Codec ID/Info                            : Advanced Video Coding
    Duration                                 : 24mn 39s
    Bit rate                                 : 1 003 Kbps
    Maximum bit rate                         : 14.3 Mbps
    Width                                    : 1 280 pixels
    Height                                   : 720 pixels
    Display aspect ratio                     : 16:9
    Frame rate mode                          : Constant
    Frame rate                               : 23.976 fps
    Color space                              : YUV
    Chroma subsampling                       : 4:2:0
    Bit depth                                : 8 bits
    Scan type                                : Progressive
    Bits/(Pixel*Frame)                       : 0.045
    Stream size                              : 177 MiB (89%)
    Writing library                          : x264 core 98 r1649 20cbe10
    Encoding settings                        : cabac=1 / ref=8 / deblock=1:1:1 / analyse=0x3:0x133 / me=umh / subme=6 / psy=1 / psy_rd=0.60:0.00 / mixed_ref=1 / me_range=16 / chroma_me=1 / trellis=2 / 8x8dct=1 / cqm=0 / deadzone=21,11 / fast_pskip=1 / chroma_qp_offset=-2 / threads=3 / sliced_threads=0 / nr=0 / decimate=1 / interlaced=0 / constrained_intra=0 / bframes=16 / b_pyramid=2 / b_adapt=1 / b_bias=0 / direct=3 / weightb=0 / weightp=2 / keyint=250 / keyint_min=25 / scenecut=40 / intra_refresh=0 / rc_lookahead=40 / rc=2pass / mbtree=1 / bitrate=1003 / ratetol=1.0 / qcomp=0.60 / qpmin=10 / qpmax=51 / qpstep=4 / cplxblur=20.0 / qblur=0.5 / ip_ratio=1.40 / aq=1:0.00
    Encoded date                             : UTC 2010-08-02 01:52:52
    Tagged date                              : UTC 2010-08-02 01:54:43
    
    Audio
    ID                                       : 2
    Format                                   : AAC
    Format/Info                              : Advanced Audio Codec
    Format profile                           : LC
    Codec ID                                 : 40
    Duration                                 : 24mn 39s
    Bit rate mode                            : Variable
    Bit rate                                 : 125 Kbps
    Maximum bit rate                         : 239 Kbps
    Channel count                            : 2 channels
    Channel positions                        : Front: L R
    Sampling rate                            : 48.0 KHz
    Compression mode                         : Lossy
    Stream size                              : 22.1 MiB (11%)
    Encoded date                             : UTC 2010-08-02 01:54:42
    Tagged date                              : UTC 2010-08-02 01:54:43
    
    






    Geschützter Bereich - Bedanke dich beim Poster, um den Bereich sehen zu können
    Hier erfährst Du wie Du Dich bedanken kannst oder werde jetzt Premium Mitglied ab einer Spende von 5€ und erhalte sofortigen Zugriff auf den Downloadbereich!

    !!!Alle Anliegen bezüglich Uploads werden nur mit direktem Threadlink zum Angebot bearbeitet!!!

    Re-Uploadanfragen nur per PN - Ihr könnt mir auch Listen schicken

    Re-Uploads erfolgen meist innerhalb 24h, kann aber auch bis zu 7 Tage dauern

    [Links sind nur für registrierte und aktivierte Nutzer sichtbar. Klicke hier um dich zu registrieren.] | [Links sind nur für registrierte und aktivierte Nutzer sichtbar. Klicke hier um dich zu registrieren.] | >[Links sind nur für registrierte und aktivierte Nutzer sichtbar. Klicke hier um dich zu registrieren.]<
    [Links sind nur für registrierte und aktivierte Nutzer sichtbar. Klicke hier um dich zu registrieren.]

  2. 7 Benutzer sagen Danke:

    Androkai (8. August 2015),Avenger2201 (10. August 2015),Bloodyair (10. August 2015),Megamani (6. September 2015),midnighter (12. August 2015),prinzvegeta (9. August 2015),Tschu23 (8. August 2015)

Lesezeichen

Berechtigungen

  • Neue Themen erstellen: Nein
  • Themen beantworten: Nein
  • Anhänge hochladen: Nein
  • Beiträge bearbeiten: Nein
  •  

1 2 3 4 5 6 7 8 9 10 11 12 13 14 15 16 17 18 19 20 21 22 23 24 25 26 27 28 29 30 31 32 33 34 35 36 37 38 39 40 41 42 43 44 45 46 47 48 49 50 51 52 53 54 55 56 57 58 59 60 61 62 63 64 65 66 67 68 69 70 71 72 73 74 75 76 77 78 79 80 81 82 83 84 85 86 87 88 89 90 91 92 93 94 95 96 97 98 99 100 101 102 103 104 105 106 107 108 109 110 111 112 113 114 115 116 117 118 119 120 121 122 123 124 125 126 127 128 129 130 131 132 133 134 135 136 137 138 139 140 141 142 143 144 145 146 147 148 149 150 151 152 153 154 155 156 157 158