Ergebnis 1 bis 1 von 1

Thema: Seitokai no Ichizon [Jap-Dub][Ger-Sub][576p][DVD] - OK

Dieser Thread wurde noch nicht bewertet. Bewerte ihn doch, wenn er dir gefällt!
  1. #1
    Kami-sama Avatar von galudo
    Registriert seit
    Mar 2015
    Beiträge
    1.371
    Punkte
    26.002
    Errungenschaften:
    TomodachisTagger ProfiHyperaktivSenpaiGang Leader

    Seitokai no Ichizon [Jap-Dub][Ger-Sub][576p][DVD] - OK

    Seitokai no Ichizon
    生徒会の一存
    Seitokai no Ichizon: Hekiyou Gakuen Seitokai Gijiroku



    Kurzbeschreibung
    An der kleinen Oberschule Hekiyou gehts drunter und drüber, denn die wichtigste Institution der Schule, das Schülerkomitee, setzt sich aus einer Bande total verschiedener, zum Teil leicht verrückter, Mitglieder zusammen. Allen voran die Präsidentin des Komitees, Kurimu Sakurano, versucht mit eiserner Hand ihren Club zu führen und ihren Willen durchzusetzen, stößt aber bei Ken Sugizaki auf Widerstand, denn er hat einen ganz anderen Plan für den Club: seinen ganz persönlichen Harem daraus zu erschaffen. Eigentlich hat er hierfür keine allzu schlechte Karten, denn er ist das einzige männliche Mitglied des fünfköpfigen Komitees, doch lassen ihn die weiblichen Mitglieder immer wieder gnadenlos abblitzen.

    Seitokai no Ichizon ist eine Mischung aus dem alltäglichen Schulleben gepaart mit einer großen Anzahl an Anspielungen auf andere Animeserien wie Death Note, Suzumiya Haruhi no Yuuutsu, Yu-Gi-Oh!, Lucky Star und vielen mehr.
    Format: MKV
    Sprache: Japanisch
    Untertitel: Deutsch
    Genre: Alltagsleben, Comedy, Schule
    Größe: ~ 230 MB pro Folge | Gesamtgröße: 2,74 GB
    Dauer: ~ 24 Minuten
    Jahr: 2009
    Video: 576p
    Source: DVD
    Subgroup / Releasegroup: OtakuKingdom Subs

    Hoster: Share-Online | Uploaded
    Passwort: siehe unten


    Datei-Info
    Spoiler
    Code:
    General
    Unique ID                      : 239747293835183130358856124216102471998 (0xB45DA633D3657F538E1485E77A7DC93E)
    Complete name                  : [OtakuKingdomSubs]Seitokai_no_Ichizon_01[576p][x264][AC48FB0B].mkv
    Format                         : Matroska
    Format version                 : Version 1
    File size                      : 234 MiB
    Duration                       : 24mn 24s
    Overall bit rate mode          : Variable
    Overall bit rate               : 1 342 Kbps
    Encoded date                   : UTC 2009-11-08 22:39:59
    Writing application            : mkvmerge v2.6.0 ('Kelly watch the Stars') built on Mar 24 2009 15:23:17
    Writing library                : libebml v0.7.7 + libmatroska v0.8.1
    Attachements                   : LT_54313.ttf / Amira-Semibold.otf
    
    Video
    ID                             : 1
    Format                         : AVC
    Format/Info                    : Advanced Video Codec
    Format profile                 : [email protected]
    Format settings, CABAC         : Yes
    Format settings, ReFrames      : 15 frames
    Codec ID                       : V_MPEG4/ISO/AVC
    Duration                       : 24mn 24s
    Bit rate                       : 1 200 Kbps
    Width                          : 1 024 pixels
    Height                         : 576 pixels
    Display aspect ratio           : 16:9
    Frame rate mode                : Constant
    Frame rate                     : 23.976 fps
    Color space                    : YUV
    Chroma subsampling             : 4:2:0
    Bit depth                      : 8 bits
    Scan type                      : Progressive
    Bits/(Pixel*Frame)             : 0.085
    Stream size                    : 202 MiB (86%)
    Title                          : Seitokai no Ichizon - 01
    Writing library                : x264 core 68 r1183M f21daff
    Encoding settings              : cabac=1 / ref=15 / deblock=1:0:0 / analyse=0x3:0x133 / me=umh / subme=9 / psy_rd=1.0:0.2 / mixed_ref=1 / me_range=20 / chroma_me=1 / trellis=2 / 8x8dct=1 / cqm=0 / deadzone=21,11 / chroma_qp_offset=-3 / threads=6 / nr=0 / decimate=1 / mbaff=0 / bframes=6 / b_pyramid=1 / b_adapt=2 / b_bias=0 / direct=1 / wpredb=1 / keyint=250 / keyint_min=25 / scenecut=40 / rc=2pass / bitrate=1200 / ratetol=1.0 / qcomp=0.60 / qpmin=10 / qpmax=51 / qpstep=4 / cplxblur=20.0 / qblur=0.5 / ip_ratio=1.40 / pb_ratio=1.30 / aq=1:0.80
    Language                       : English
    Default                        : Yes
    Forced                         : No
    
    Audio
    ID                             : 2
    Format                         : Vorbis
    Format settings, Floor         : 1
    Codec ID                       : A_VORBIS
    Duration                       : 24mn 24s
    Bit rate mode                  : Variable
    Bit rate                       : 160 Kbps
    Channel(s)                     : 2 channels
    Sampling rate                  : 48.0 KHz
    Compression mode               : Lossy
    Stream size                    : 27.9 MiB (12%)
    Title                          : 2.0 Vorbis
    Writing library                : aoTuV b5c  (UTC 2008-12-15)
    Language                       : Japanese
    Default                        : Yes
    Forced                         : No
    
    Text #1
    ID                             : 3
    Format                         : ASS
    Codec ID                       : S_TEXT/ASS
    Codec ID/Info                  : Advanced Sub Station Alpha
    Compression mode               : Lossless
    Title                          : ASS
    Language                       : English
    Default                        : Yes
    Forced                         : No
    
    Text #2
    ID                             : 4
    Format                         : ASS
    Codec ID                       : S_TEXT/ASS
    Codec ID/Info                  : Advanced Sub Station Alpha
    Compression mode               : Lossless
    Title                          : ASS (Priv Sub BloodyPleasure)
    Language                       : German
    Default                        : No
    Forced                         : No
    
    Menu
    00:00:00.000                   : en:Prologue
    00:02:17.900                   : en:Opening
    00:03:47.900                   : en:Seitokai no Ichizon - 01
    00:22:39.700                   : en:Ending
    00:24:09.800                   : en:Preview


    Folgen 12 / 12 online
    Folgen einzeln ladbar



    || Download & Passwort ||


    Geschützter Bereich - Bedanke dich beim Poster, um den Bereich sehen zu können
    Hier erfährst Du wie Du Dich bedanken kannst oder werde jetzt Premium Mitglied ab einer Spende von 5€ und erhalte sofortigen Zugriff auf den Downloadbereich!

    Geändert von galudo (12. October 2016 um 18:40 Uhr)
    SUPPORT UND REUP ANFRAGEN NUR >> [Links sind nur für registrierte und aktivierte Nutzer sichtbar. Klicke hier um dich zu registrieren.] <<
    Bitte IMMER den Thread-Link mitschicken.

  2. 16 Benutzer sagen Danke:

    Akio (14. February 2016),Alecith (6. February 2016),Antipott (22. February 2016),Asuka Langley (10. April 2016),boerf (24. July 2016),iPwnage (5. April 2016),johnny10 (6. March 2016),krasserGaul (12. June 2016),Kuddel (31. March 2016),Masaru (6. February 2016),midnighter (7. February 2016),Rena_Chan (6. February 2016),Sandy7580 (7. April 2016),sn4tch (14. October 2016),Solah (20. February 2016),Tzi (6. February 2016)

Lesezeichen

Berechtigungen

  • Neue Themen erstellen: Nein
  • Themen beantworten: Nein
  • Anhänge hochladen: Nein
  • Beiträge bearbeiten: Nein
  •  

1 2 3 4 5 6 7 8 9 10 11 12 13 14 15 16 17 18 19 20 21 22 23 24 25 26 27 28 29 30 31 32 33 34 35 36 37 38 39 40 41 42 43 44 45 46 47 48 49 50 51 52 53 54 55 56 57 58 59 60 61 62 63 64 65 66 67 68 69 70 71 72 73 74 75 76 77 78 79 80 81 82 83 84 85 86 87 88 89 90 91 92 93 94 95 96 97 98 99 100 101 102 103 104 105 106 107 108 109 110 111 112 113 114 115 116 117 118 119 120 121 122 123 124 125 126 127 128 129 130 131 132 133 134 135 136 137 138 139 140 141 142 143 144 145 146 147 148 149 150 151 152 153 154 155 156 157 158