Ergebnis 1 bis 1 von 1

Thema: Seitokai Yakuindomo [Jap-Dub][Ger-Sub][720p][HDTV]-OS

Dieser Thread wurde noch nicht bewertet. Bewerte ihn doch, wenn er dir gefällt!
  1. #1
    United we Stand Avatar von 00Ryuji00
    Registriert seit
    Oct 2012
    Beiträge
    3.902
    Punkte
    99.823
    Errungenschaften:
    TomodachisGang LeaderHikikomoriTagger Amateur50000 Erfahrungspunkte

    Seitokai Yakuindomo [Jap-Dub][Ger-Sub][720p][HDTV]-OS


    Seitokai Yakuindomo
    生徒会役員共
    Seitokai Yakuin Domo
    S.Y.D.






    Kurzbeschreibung:
    Zitat Zitat von AniSearch.com
    Bis vor Kurzem war die Ōsai Akademie eine private High School für Mädchen, doch inzwischen steht sie beiden Geschlechtern offen. Trotzdem kommen auf 524 Mädchen gerade einmal 28 Jungen, weshalb Takatoshi Tsuda, als er dazu überredet wird Vizepräsident des Schülerrates zu werden, dort auch das einzige Mitglied seines Geschlechts bleibt und sich nun gegen die weibliche Übermacht behaupten muss. Womit er sich aber nun auseinandersetzen muss, fällt dem normal wirkenden Takatoshi wahrlich schwer. Die drei weiblichen Mitglieder des Schülerrates Shino Amakusa, Aria Shichijou und Suzu Hagimura bilden ein Gespann von durchgedrehten Topschülerinnen, deren Kommentare und Äußerungen nicht selten extrem schlüpfrig sind.


    Spieldauer: 25min
    Genre: Nonsense-Komödie
    Nebengenres: Alltagsleben, Komödie, Männlich
    Jahr: 2010
    Sprache: Japanisch
    Untertitel: Deutsch
    Größe pro Folge: ~291 MiB
    Episodenanzahl: 13/13
    Format: MP4
    Auflösung: 720p (16:9)
    Videocodec: x264 (AVC)
    Audiocodec: AAC
    Releasegruppe: Offline-Subs
    Hoster: Share-Online, Uploaded


    MediaInfo
    Code:
    
    Format                                   : MPEG-4
    Format profile                           : Base Media
    Codec ID                                 : isom
    File size                                : 291 MiB
    Duration                                 : 24mn 0s
    Overall bit rate mode                    : Variable
    Overall bit rate                         : 1 695 Kbps
    Encoded date                             : UTC 2010-07-06 00:00:44
    Tagged date                              : UTC 2010-07-06 00:00:44
    
    Video
    ID                                       : 1
    Format                                   : AVC
    Format/Info                              : Advanced Video Codec
    Format profile                           : [email protected]
    Format settings, CABAC                   : Yes
    Format settings, ReFrames                : 3 frames
    Codec ID                                 : avc1
    Codec ID/Info                            : Advanced Video Coding
    Duration                                 : 24mn 0s
    Bit rate                                 : 1 500 Kbps
    Maximum bit rate                         : 16.0 Mbps
    Width                                    : 1 280 pixels
    Height                                   : 720 pixels
    Display aspect ratio                     : 16:9
    Frame rate mode                          : Constant
    Frame rate                               : 23.976 fps
    Color space                              : YUV
    Chroma subsampling                       : 4:2:0
    Bit depth                                : 8 bits
    Scan type                                : Progressive
    Bits/(Pixel*Frame)                       : 0.068
    Stream size                              : 258 MiB (88%)
    Writing library                          : x264 core 80 r1376M 3feaec2
    Encoding settings                        : cabac=1 / ref=3 / deblock=1:1:1 / analyse=0x1:0x111 / me=hex / subme=7 / psy=1 / psy_rd=0.4:0.0 / mixed_ref=1 / me_range=16 / chroma_me=1 / trellis=1 / 8x8dct=0 / cqm=0 / deadzone=21,11 / fast_pskip=1 / chroma_qp_offset=-2 / threads=6 / sliced_threads=0 / nr=0 / decimate=1 / mbaff=0 / constrained_intra=0 / bframes=3 / b_pyramid=0 / b_adapt=1 / b_bias=0 / direct=1 / wpredb=1 / wpredp=2 / keyint=250 / keyint_min=25 / scenecut=40 / rc_lookahead=40 / rc=2pass / mbtree=1 / bitrate=1500 / ratetol=1.0 / qcomp=0.60 / qpmin=10 / qpmax=51 / qpstep=4 / cplxblur=20.0 / qblur=0.5 / ip_ratio=1.40 / aq=1:0.60
    Encoded date                             : UTC 2010-07-05 23:34:16
    Tagged date                              : UTC 2010-07-06 00:00:52
    
    Audio
    ID                                       : 2
    Format                                   : AAC
    Format/Info                              : Advanced Audio Codec
    Format profile                           : LC
    Codec ID                                 : 40
    Duration                                 : 24mn 0s
    Bit rate mode                            : Variable
    Bit rate                                 : 192 Kbps
    Maximum bit rate                         : 233 Kbps
    Channel(s)                               : 2 channels
    Channel positions                        : Front: L R
    Sampling rate                            : 48.0 KHz
    Compression mode                         : Lossy
    Stream size                              : 32.9 MiB (11%)
    Language                                 : Japanese
    Encoded date                             : UTC 2010-07-06 00:00:46
    Tagged date                              : UTC 2010-07-06 00:00:52
    
    





    Geschützter Bereich - Bedanke dich beim Poster, um den Bereich sehen zu können
    Hier erfährst Du wie Du Dich bedanken kannst oder werde jetzt Premium Mitglied ab einer Spende von 5€ und erhalte sofortigen Zugriff auf den Downloadbereich!



    [Links sind nur für registrierte und aktivierte Nutzer sichtbar. Klicke hier um dich zu registrieren.]
    Geändert von so1k (12. October 2016 um 20:37 Uhr)
    !!!Alle Anliegen bezüglich Uploads werden nur mit direktem Threadlink zum Angebot bearbeitet!!!

    Re-Uploadanfragen nur per PN - Ihr könnt mir auch Listen schicken

    Re-Uploads erfolgen meist innerhalb 24h, kann aber auch bis zu 7 Tage dauern

    [Links sind nur für registrierte und aktivierte Nutzer sichtbar. Klicke hier um dich zu registrieren.] | [Links sind nur für registrierte und aktivierte Nutzer sichtbar. Klicke hier um dich zu registrieren.] | >[Links sind nur für registrierte und aktivierte Nutzer sichtbar. Klicke hier um dich zu registrieren.]<
    [Links sind nur für registrierte und aktivierte Nutzer sichtbar. Klicke hier um dich zu registrieren.]

  2. 13 Benutzer sagen Danke:

    Akio (6. February 2016),Aluaran (8. January 2016),Djangorain (23. January 2016),GiftGasBaer (22. February 2016),Kokujou (11. January 2016),midnighter (20. January 2016),NHarmonia (1. November 2016),Ronae (11. January 2016),Soranix06 (18. February 2016),swagrid (21. March 2016),Tidus18 (17. January 2016),Tschu23 (4. February 2016),wasweisich (10. January 2016)

Lesezeichen

Berechtigungen

  • Neue Themen erstellen: Nein
  • Themen beantworten: Nein
  • Anhänge hochladen: Nein
  • Beiträge bearbeiten: Nein
  •  

1 2 3 4 5 6 7 8 9 10 11 12 13 14 15 16 17 18 19 20 21 22 23 24 25 26 27 28 29 30 31 32 33 34 35 36 37 38 39 40 41 42 43 44 45 46 47 48 49 50 51 52 53 54 55 56 57 58 59 60 61 62 63 64 65 66 67 68 69 70 71 72 73 74 75 76 77 78 79 80 81 82 83 84 85 86 87 88 89 90 91 92 93 94 95 96 97 98 99 100 101 102 103 104 105 106 107 108 109 110 111 112 113 114 115 116 117 118 119 120 121 122 123 124 125 126 127 128 129 130 131 132 133 134 135 136 137 138 139 140 141 142 143 144 145 146 147 148 149 150 151 152 153 154 155 156 157 158