Ergebnis 1 bis 2 von 2

Thema: Shigurui [Jap-Dub][Ger-Sub][1080p][BluRay] - B-SH

Dieser Thread wurde noch nicht bewertet. Bewerte ihn doch, wenn er dir gefällt!
  1. #1
    United we Stand Avatar von 00Ryuji00
    Registriert seit
    Oct 2012
    Beiträge
    3.902
    Punkte
    99.823
    Errungenschaften:
    TomodachisGang LeaderHikikomoriTagger Amateur50000 Erfahrungspunkte

    Shigurui [Jap-Dub][Ger-Sub][1080p][BluRay] - B-SH


    Shigurui
    Shigurui: Death Frenzy






    Kurzbeschreibung:
    Zitat Zitat von AniSearch.com
    Der einarmige Fujiki Gennosuke und der blinde Irako Seigen stehen sich bei einem Turnier von Lord Tokugawa Tadanaga gegenüber. In der Vergangenheit wurden solche Turniere immer mit Holzschwertern ausgetragen, aber dies ist das erste Mal, dass echte Schwerter verwendet werden. Aber die beiden Schwertkämpfer sind nicht nur Gegner in diesem Turnier, sie verbindet eine gemeinsame Vergangenheit. Sie waren beide Schüler von Iwamoto Kogan, dem besten Schwertkämpfer Japans.
    Was geschah in der Vergangenheit und wieso stehen sie sich gegenüber?


    Spieldauer: 23min
    Genre: Actiondrama
    Nebengenres: Action, Drama, Übermäßige Gewaltdarstellung
    Jahr: 2007
    Sprache: Japanisch
    Untertitel: Deutsch
    Größe pro Folge: ~1.01 GiB
    Episodenanzahl: 12 /12
    Format: MKV
    Auflösung: 1080p (16:9)
    Videocodec: x264 (AVC)
    Audiocodec: AC-3
    Releasegruppe: B-SH
    Hoster: Share-Online, Uploaded


    MediaInfo
    Code:
    
    Format                                   : Matroska
    Format version                           : Version 1
    File size                                : 1.01 GiB
    Duration                                 : 23mn 52s
    Overall bit rate                         : 6 075 Kbps
    Encoded date                             : UTC 2010-04-02 12:44:45
    Writing application                      : mkvmerge v2.4.2 ('Oh My God') built on Jan 18 2009 17:30:28
    Writing library                          : libebml v0.7.7 + libmatroska v0.8.1
    Attachements                             : gatekeeper aoe (style2).TTF / la bamba let (style1).TTF / ruach let (style5&6).TTF / smudger let plain (style3&4).TTF
    
    Video
    ID                                       : 1
    Format                                   : AVC
    Format/Info                              : Advanced Video Codec
    Format profile                           : [email protected]
    Format settings, CABAC                   : Yes
    Format settings, ReFrames                : 1 frame
    Codec ID                                 : V_MPEG4/ISO/AVC
    Duration                                 : 23mn 52s
    Bit rate                                 : 5 500 Kbps
    Width                                    : 1 920 pixels
    Height                                   : 1 080 pixels
    Display aspect ratio                     : 16:9
    Frame rate mode                          : Constant
    Frame rate                               : 23.976 fps
    Color space                              : YUV
    Chroma subsampling                       : 4:2:0
    Bit depth                                : 8 bits
    Scan type                                : Progressive
    Bits/(Pixel*Frame)                       : 0.111
    Stream size                              : 907 MiB (87%)
    Title                                    : FHD
    Writing library                          : x264 core 68 r1195bm 5d75a9b
    Encoding settings                        : cabac=1 / ref=1 / deblock=1:0:0 / analyse=0x3:0x33 / me=umh / subme=7 / psy_rd=0.0:0.0 / mixed_ref=0 / me_range=16 / chroma_me=1 / trellis=1 / 8x8dct=1 / cqm=0 / deadzone=21,11 / chroma_qp_offset=0 / threads=1 / thread_queue=1 / nr=0 / decimate=1 / mbaff=0 / bframes=0 / keyint=250 / keyint_min=25 / scenecut=40 / rc=abr / bitrate=5500 / ratetol=1.0 / qcomp=0.60 / qpmin=10 / qpmax=51 / qpstep=4 / ip_ratio=1.40 / aq=2:1.00
    Language                                 : Japanese
    Default                                  : Yes
    Forced                                   : No
    
    Audio
    ID                                       : 2
    Format                                   : AC-3
    Format/Info                              : Audio Coding 3
    Mode extension                           : CM (complete main)
    Format settings, Endianness              : Big
    Codec ID                                 : A_AC3
    Duration                                 : 23mn 52s
    Bit rate mode                            : Constant
    Bit rate                                 : 640 Kbps
    Channel(s)                               : 2 channels
    Channel positions                        : Front: L R
    Sampling rate                            : 48.0 KHz
    Compression mode                         : Lossy
    Stream size                              : 109 MiB (11%)
    Title                                    : Japanisch @2ch
    Language                                 : Japanese
    Default                                  : Yes
    Forced                                   : No
    
    Text
    ID                                       : 3
    Format                                   : ASS
    Codec ID                                 : S_TEXT/ASS
    Codec ID/Info                            : Advanced Sub Station Alpha
    Compression mode                         : Lossless
    Title                                    : Deutsch
    Language                                 : German
    Default                                  : Yes
    Forced                                   : No
    
    





    Geschützter Bereich - Bedanke dich beim Poster, um den Bereich sehen zu können
    Hier erfährst Du wie Du Dich bedanken kannst oder werde jetzt Premium Mitglied ab einer Spende von 5€ und erhalte sofortigen Zugriff auf den Downloadbereich!


    [Links sind nur für registrierte und aktivierte Nutzer sichtbar. Klicke hier um dich zu registrieren.]
    !!!Alle Anliegen bezüglich Uploads werden nur mit direktem Threadlink zum Angebot bearbeitet!!!

    Re-Uploadanfragen nur per PN - Ihr könnt mir auch Listen schicken

    Re-Uploads erfolgen meist innerhalb 24h, kann aber auch bis zu 7 Tage dauern

    [Links sind nur für registrierte und aktivierte Nutzer sichtbar. Klicke hier um dich zu registrieren.] | [Links sind nur für registrierte und aktivierte Nutzer sichtbar. Klicke hier um dich zu registrieren.] | >[Links sind nur für registrierte und aktivierte Nutzer sichtbar. Klicke hier um dich zu registrieren.]<
    [Links sind nur für registrierte und aktivierte Nutzer sichtbar. Klicke hier um dich zu registrieren.]

  2. 20 Benutzer sagen Danke:

    Akulti (14. February 2016),DjRayleigh (16. February 2016),folgar (15. February 2016),Frag0042 (18. February 2016),GiftGasBaer (22. February 2016),Jamaz (30. October 2016),johnny10 (7. March 2016),KaneTheMagic (21. November 2016),ManunaM (1. December 2016),michael187 (5. April 2016),midnighter (16. March 2016),MutationACE (14. June 2016),nitsuj1001 (28. March 2016),NLHTeddyNLH (14. February 2016),realmadridcf (15. February 2016),sanbu (4. November 2016),Shugyosha (14. February 2016),SnowCat (25. September 2016),soyutrox (19. September 2016),YamiXGhost (23. September 2016)

  3. #2
    United we Stand Avatar von 00Ryuji00
    Registriert seit
    Oct 2012
    Beiträge
    3.902
    Punkte
    99.823
    Errungenschaften:
    TomodachisGang LeaderHikikomoriTagger Amateur50000 Erfahrungspunkte

    AW: Shigurui [Jap-Dub][Ger-Sub][1080p][BluRay]-B-SH

    Update: Dateien auf Wunsch wieder online.
    !!!Alle Anliegen bezüglich Uploads werden nur mit direktem Threadlink zum Angebot bearbeitet!!!

    Re-Uploadanfragen nur per PN - Ihr könnt mir auch Listen schicken

    Re-Uploads erfolgen meist innerhalb 24h, kann aber auch bis zu 7 Tage dauern

    [Links sind nur für registrierte und aktivierte Nutzer sichtbar. Klicke hier um dich zu registrieren.] | [Links sind nur für registrierte und aktivierte Nutzer sichtbar. Klicke hier um dich zu registrieren.] | >[Links sind nur für registrierte und aktivierte Nutzer sichtbar. Klicke hier um dich zu registrieren.]<
    [Links sind nur für registrierte und aktivierte Nutzer sichtbar. Klicke hier um dich zu registrieren.]

Lesezeichen

Berechtigungen

  • Neue Themen erstellen: Nein
  • Themen beantworten: Nein
  • Anhänge hochladen: Nein
  • Beiträge bearbeiten: Nein
  •  

1 2 3 4 5 6 7 8 9 10 11 12 13 14 15 16 17 18 19 20 21 22 23 24 25 26 27 28 29 30 31 32 33 34 35 36 37 38 39 40 41 42 43 44 45 46 47 48 49 50 51 52 53 54 55 56 57 58 59 60 61 62 63 64 65 66 67 68 69 70 71 72 73 74 75 76 77 78 79 80 81 82 83 84 85 86 87 88 89 90 91 92 93 94 95 96 97 98 99 100 101 102 103 104 105 106 107 108 109 110 111 112 113 114 115 116 117 118 119 120 121 122 123 124 125 126 127 128 129 130 131 132 133 134 135 136 137 138 139 140 141 142 143 144 145 146 147 148 149 150 151 152 153 154 155 156 157 158