Ergebnis 1 bis 1 von 1

Thema: Shingeki no Kyojin No Regrets Part 1 [Jap-Dub][Ger-Sub][576p]

Dieser Thread wurde noch nicht bewertet. Bewerte ihn doch, wenn er dir gefällt!
  1. #1
    Kami-sama Avatar von galudo
    Registriert seit
    Mar 2015
    Beiträge
    1.371
    Punkte
    26.024
    Errungenschaften:
    TomodachisTagger ProfiHyperaktivSenpaiGang Leader

    Shingeki no Kyojin No Regrets Part 1 [Jap-Dub][Ger-Sub][576p]

    Shingeki no Kyojin: Kuinaki Sentaku | 進撃の巨人 悔いなき選択
    Shingeki no Kyojin No Regrets Part 1 | Attack on Titan No Regrets Part 1
    Shingeki no Kyojin OVA 01 | Attack on Titan OVA 01
    Attack on Titan: No Regrets | Shingeki no Kyojin: Birth of Levi




    Kurzbeschreibung
    Der junge Erwin Smith ist ein aufsteigender Held im Aufklärungstrupp. Er ist bekannt, als der Menschheit einzige Hoffnung, die Titanen zu zerstören. Unbarmherzig und gelassen, widmet sich Erwin den Strategien und Intrigen. Aber unter Erwins Füßen ist noch eine andere Welt, die Unterwelt, wo Menschen geboren werden und sterben umgeben vom Müll, welchen die Hauptstadt über der Erde wegwirft. Hier überlebt der kriminelle Levi, ausgerüstet mit seinem scharfen Verstand und seiner Agilität.

    Was wird passieren, wenn diese zwei ehrgeizigen Männer sich begegnen? Wer wird sich als stärker erweisen?
    Format: MP4
    Sprache: Japanisch
    Untertitel: Deutsch
    Größe: ~ 215 MB
    Dauer: ~ 24 Minuten
    Jahr: 2014
    Video: 1024x576p
    Source: Web-Rip
    Releasegroup: Pure-Ani.me

    Hoster: Share-Online | Uploadable | Uploaded | Rapidgator
    Passwort: siehe unten


    Datei-Info
    Spoiler
    Code:
    General
    Format                         : MPEG-4
    Format profile                 : Base Media
    Codec ID                       : isom
    File size                      : 216 MiB
    Duration                       : 24mn 3s
    Overall bit rate mode          : Variable
    Overall bit rate               : 1 252 Kbps
    
    Video
    ID                             : 1
    Format                         : AVC
    Format/Info                    : Advanced Video Codec
    Format profile                 : [email protected]
    Format settings, CABAC         : Yes
    Format settings, ReFrames      : 4 frames
    Codec ID                       : avc1
    Codec ID/Info                  : Advanced Video Coding
    Duration                       : 24mn 3s
    Bit rate                       : 1 087 Kbps
    Maximum bit rate               : 5 343 Kbps
    Width                          : 1 024 pixels
    Height                         : 576 pixels
    Display aspect ratio           : 16:9
    Frame rate mode                : Constant
    Frame rate                     : 23.976 fps
    Color space                    : YUV
    Chroma subsampling             : 4:2:0
    Bit depth                      : 8 bits
    Scan type                      : Progressive
    Bits/(Pixel*Frame)             : 0.077
    Stream size                    : 187 MiB (87%)
    Title                          : ˆ
    Writing library                : x264 core 125 r2200 999b753
    Encoding settings              : cabac=1 / ref=3 / deblock=1:0:0 / analyse=0x3:0x113 / me=hex / subme=7 / psy=1 / psy_rd=1.00:0.00 / mixed_ref=1 / me_range=16 / chroma_me=1 / trellis=1 / 8x8dct=1 / cqm=0 / deadzone=21,11 / fast_pskip=1 / chroma_qp_offset=-2 / threads=12 / lookahead_threads=2 / sliced_threads=0 / nr=0 / decimate=1 / interlaced=0 / bluray_compat=0 / constrained_intra=0 / bframes=3 / b_pyramid=2 / b_adapt=1 / b_bias=0 / direct=1 / weightb=1 / open_gop=0 / weightp=2 / keyint=240 / keyint_min=23 / scenecut=40 / intra_refresh=0 / rc_lookahead=40 / rc=2pass / mbtree=1 / bitrate=1087 / ratetol=1.0 / qcomp=0.60 / qpmin=0 / qpmax=69 / qpstep=4 / cplxblur=20.0 / qblur=0.5 / ip_ratio=1.40 / aq=1:1.00
    
    Audio
    ID                             : 2
    Format                         : AAC
    Format/Info                    : Advanced Audio Codec
    Format profile                 : LC
    Codec ID                       : 40
    Duration                       : 24mn 3s
    Bit rate mode                  : Variable
    Bit rate                       : 161 Kbps
    Maximum bit rate               : 201 Kbps
    Channel(s)                     : 2 channels
    Channel positions              : Front: L R
    Sampling rate                  : 48.0 KHz
    Compression mode               : Lossy
    Stream size                    : 27.7 MiB (13%)


    || Download & Passwort ||
    Geschützter Bereich - Bedanke dich beim Poster, um den Bereich sehen zu können
    Hier erfährst Du wie Du Dich bedanken kannst oder werde jetzt Premium Mitglied ab einer Spende von 5€ und erhalte sofortigen Zugriff auf den Downloadbereich!
    Geändert von galudo (21. April 2016 um 18:30 Uhr)
    SUPPORT UND REUP ANFRAGEN NUR >> [Links sind nur für registrierte und aktivierte Nutzer sichtbar. Klicke hier um dich zu registrieren.] <<
    Bitte IMMER den Thread-Link mitschicken.

  2. 60 Benutzer sagen Danke:

    Anzeigen

    $$conan$$ (18. May 2015),aironic_inactive (19. July 2015),alecander (14. June 2015),Asura (25. April 2015),bastole (15. July 2015),BlackIron (12. April 2015),Bloodyair (14. April 2015),Bruglin (11. May 2015),cat 86 (5. July 2015),chewbacka (30. January 2016),Crowstea (12. April 2015),Dalurin (5. July 2015),delay (14. April 2016),Drezzo (20. July 2015),drparnassus (12. April 2015),eraz (12. April 2015),eston (12. May 2015),farmerjoe (12. April 2015),FIRST--LAW--FANTASY (27. October 2015),Frag0042 (26. July 2015),FreshMagma (12. July 2015),Geisterhaendler (1. October 2015),hausl (23. April 2015),HoOoLy_ShiiiT (17. April 2015),InSaNe.CodeZ (12. April 2015),Itachi.Uchiha (14. April 2015),Jeycop (19. April 2015),Jisagi (14. April 2015),kanita (2. July 2015),kongolippe_inactive (5. July 2015),LawrenceKraft (26. April 2015),macis2013 (19. April 2015),Mahlzeit (18. May 2015),Melijal (19. April 2015),midnighter (13. April 2015),Mikyo (2. July 2015),Nanashi (3. February 2016),neocx (28. March 2016),Over (12. April 2015),Pappkamerad (12. April 2015),PokemonMeister (13. April 2015),Quetzal Coatl (19. July 2015),Rena (7. July 2015),revil (9. August 2015),Saphir (28. April 2015),satsugai (3. August 2015),sebmori (26. July 2015),Shinosenshi (30. April 2015),Shinu Luna (26. November 2015),Slyer333 (11. April 2015),SnowCat (12. April 2015),ssj3shad (12. April 2015),Traxolator (3. May 2015),turyal (30. August 2015),Virgel (17. July 2015),XxXYurrippeXxX (13. April 2015),xZodiac (8. October 2015),yuudai (13. April 2015),Zeigerful (20. May 2015),Zero (4. May 2015)

Stichworte

Lesezeichen

Berechtigungen

  • Neue Themen erstellen: Nein
  • Themen beantworten: Nein
  • Anhänge hochladen: Nein
  • Beiträge bearbeiten: Nein
  •  

1 2 3 4 5 6 7 8 9 10 11 12 13 14 15 16 17 18 19 20 21 22 23 24 25 26 27 28 29 30 31 32 33 34 35 36 37 38 39 40 41 42 43 44 45 46 47 48 49 50 51 52 53 54 55 56 57 58 59 60 61 62 63 64 65 66 67 68 69 70 71 72 73 74 75 76 77 78 79 80 81 82 83 84 85 86 87 88 89 90 91 92 93 94 95 96 97 98 99 100 101 102 103 104 105 106 107 108 109 110 111 112 113 114 115 116 117 118 119 120 121 122 123 124 125 126 127 128 129 130 131 132 133 134 135 136 137 138 139 140 141 142 143 144 145 146 147 148 149 150 151 152 153 154 155 156 157 158