Ergebnis 1 bis 1 von 1

Thema: Shingeki no Kyojin: OAD 1-3/OVA 1-3 [Jap-Dub][Ger-Sub][480p]

Dieser Thread wurde noch nicht bewertet. Bewerte ihn doch, wenn er dir gefällt!
  1. #1
    Kami-sama Avatar von galudo
    Registriert seit
    Mar 2015
    Beiträge
    1.369
    Punkte
    25.903
    Errungenschaften:
    TomodachisTagger ProfiHyperaktivSenpaiGang Leader

    Shingeki no Kyojin: OAD 1-3/OVA 1-3 [Jap-Dub][Ger-Sub][480p]

    Shingeki no Kyojin OAD 1-3| 進撃の巨人 OAD
    Ilse no Techou: Aru Chousa Heidan-in no Shuki | Ilses Notizbuch
    Totsuzen no Raihou-sha: Sainamareru Seishun no Noroi | Ein unerwarteter Besucher - Der Fluch einer qualvollen Jugend!
    Konnan | Grosse Not




    Kurzbeschreibung
    Shingeki no Kyojin OAD sind drei voneinander und der Hauptgeschichte unabhängige Nebengeschichten. Darunter die Begegnung von Hanji Zoe mit einem besonders abnormalen Titanen, ein Kochwettbewerb zwischen Jean Kirstein und Sasha Blouse und die gefährlichen Vorkommnisse bei einer Übung der 104. Trainingseinheit und Levi und Erwin finden finden während einer Mission ein altes Notizbuch außerhalb der Mauern.
    Format: MP4
    Sprache: Japanisch
    Untertitel: Deutsch
    Größe: ~ 120-320 MB
    Dauer: ~ 24 Minuten
    Jahr: 2013/14
    Video: 480p
    Source: Web-Rip
    Releasegroup: GenX-Subs(OAD1) | Chinunarete-Subs(OAD2+3)

    Hoster: Share-Online | Uploaded
    Passwort: siehe unten


    Datei-Info
    Spoiler
    OAD-1
    Spoiler
    Code:
    General
    Format                         : MPEG-4
    Format profile                 : Base Media
    Codec ID                       : isom
    File size                      : 320 MiB
    Duration                       : 23mn 20s
    Overall bit rate mode          : Variable
    Overall bit rate               : 1 919 Kbps
    
    Video
    ID                             : 1
    Format                         : AVC
    Format/Info                    : Advanced Video Codec
    Format profile                 : [email protected]
    Format settings, CABAC         : Yes
    Format settings, ReFrames      : 16 frames
    Codec ID                       : avc1
    Codec ID/Info                  : Advanced Video Coding
    Duration                       : 23mn 20s
    Bit rate                       : 1 704 Kbps
    Maximum bit rate               : 12.3 Mbps
    Width                          : 848 pixels
    Height                         : 480 pixels
    Display aspect ratio           : 16:9
    Frame rate mode                : Constant
    Frame rate                     : 23.976 fps
    Color space                    : YUV
    Chroma subsampling             : 4:2:0
    Bit depth                      : 8 bits
    Scan type                      : Progressive
    Bits/(Pixel*Frame)             : 0.175
    Stream size                    : 284 MiB (89%)
    Writing library                : x264 core 138 r2358 9e941d1
    
    Audio
    ID                             : 2
    Format                         : AAC
    Format/Info                    : Advanced Audio Codec
    Format profile                 : LC
    Codec ID                       : 40
    Duration                       : 23mn 20s
    Bit rate mode                  : Variable
    Bit rate                       : 212 Kbps
    Maximum bit rate               : 256 Kbps
    Channel(s)                     : 2 channels
    Channel positions              : Front: L R
    Sampling rate                  : 48.0 KHz
    Compression mode               : Lossy
    Stream size                    : 35.3 MiB (11%)
    Language                       : Japanese
    
    OAD-2
    Spoiler
    Code:
    General
    Format                         : Flash Video
    File size                      : 147 MiB
    Duration                       : 25mn 23s
    Overall bit rate               : 809 Kbps
    Tagged date                    : UTC 2014-08-06 00:19:06
    Tagging application            : flvmeta 1.1.0
    
    Video
    Format                         : AVC
    Format/Info                    : Advanced Video Codec
    Format profile                 : [email protected]
    Format settings, CABAC         : Yes
    Format settings, ReFrames      : 6 frames
    Codec ID                       : 7
    Duration                       : 25mn 23s
    Bit rate                       : 657 Kbps
    Width                          : 846 pixels
    Height                         : 480 pixels
    Display aspect ratio           : 16:9
    Frame rate mode                : Constant
    Frame rate                     : 23.976 fps
    Color space                    : YUV
    Chroma subsampling             : 4:2:0
    Bit depth                      : 8 bits
    Scan type                      : Progressive
    Bits/(Pixel*Frame)             : 0.067
    Stream size                    : 123 MiB (83%)
    Writing library                : x264 core 118
    
    Audio
    Format                         : AAC
    Format/Info                    : Advanced Audio Codec
    Format profile                 : LC
    Codec ID                       : 10
    Duration                       : 25mn 23s
    Bit rate                       : 125 Kbps
    Channel(s)                     : 2 channels
    Channel positions              : Front: L R
    Sampling rate                  : 44.1 KHz
    Compression mode               : Lossy
    Delay relative to video        : 84ms
    Stream size                    : 24.1 MiB (16%)
    OAD-3
    Spoiler
    Code:
    General
    Format                         : Flash Video
    File size                      : 125 MiB
    Duration                       : 23mn 56s
    Overall bit rate               : 730 Kbps
    Tagged date                    : UTC 2014-08-19 23:35:23
    Tagging application            : flvmeta 1.1.0
    
    Video
    Format                         : AVC
    Format/Info                    : Advanced Video Codec
    Format profile                 : [email protected]
    Format settings, CABAC         : Yes
    Format settings, ReFrames      : 6 frames
    Codec ID                       : 7
    Duration                       : 23mn 56s
    Bit rate                       : 580 Kbps
    Width                          : 846 pixels
    Height                         : 480 pixels
    Display aspect ratio           : 16:9
    Frame rate mode                : Constant
    Frame rate                     : 23.976 fps
    Color space                    : YUV
    Chroma subsampling             : 4:2:0
    Bit depth                      : 8 bits
    Scan type                      : Progressive
    Bits/(Pixel*Frame)             : 0.060
    Stream size                    : 102 MiB (82%)
    Writing library                : x264 core 118
    
    Audio
    Format                         : AAC
    Format/Info                    : Advanced Audio Codec
    Format profile                 : LC
    Codec ID                       : 10
    Duration                       : 23mn 56s
    Bit rate                       : 125 Kbps
    Channel(s)                     : 2 channels
    Channel positions              : Front: L R
    Sampling rate                  : 44.1 KHz
    Compression mode               : Lossy
    Delay relative to video        : 84ms
    Stream size                    : 22.7 MiB (18%)
    Spoiler
    Code:
     


    OADs/OVAs einzeln ladbar


    || Download & Passwort ||
    Geschützter Bereich - Bedanke dich beim Poster, um den Bereich sehen zu können
    Hier erfährst Du wie Du Dich bedanken kannst oder werde jetzt Premium Mitglied ab einer Spende von 5€ und erhalte sofortigen Zugriff auf den Downloadbereich!
    Geändert von galudo (21. April 2016 um 18:30 Uhr)
    SUPPORT UND REUP ANFRAGEN NUR >> [Links sind nur für registrierte und aktivierte Nutzer sichtbar. Klicke hier um dich zu registrieren.] <<
    Bitte IMMER den Thread-Link mitschicken.

  2. 31 Benutzer sagen Danke:

    alecander (14. June 2015),Amraam (18. April 2015),Asura (25. April 2015),bastole (15. July 2015),bloodyfloh (16. April 2015),chewbacka (30. January 2016),eraz (17. April 2015),eston (12. May 2015),FreshMagma (12. July 2015),GutiHaz_14 (30. August 2015),hausl (23. April 2015),HoOoLy_ShiiiT (17. April 2015),Katagashi (22. August 2015),LawrenceKraft (2. July 2015),Melijal (19. April 2015),midnighter (17. April 2015),MutationACE (6. November 2016),Owl (19. April 2015),Quetzal Coatl (19. July 2015),Rena (7. July 2015),revil (9. August 2015),Robin88 (17. May 2016),satsugai (3. August 2015),sebmori (26. July 2015),SnowCat (17. April 2015),Sou-chan (28. April 2015),Subzero (13. August 2015),Tevion32 (14. January 2016),TheBloodyace (18. April 2015),Virgel (17. July 2015),xDarkness (19. January 2016)

Stichworte

Lesezeichen

Berechtigungen

  • Neue Themen erstellen: Nein
  • Themen beantworten: Nein
  • Anhänge hochladen: Nein
  • Beiträge bearbeiten: Nein
  •  

1 2 3 4 5 6 7 8 9 10 11 12 13 14 15 16 17 18 19 20 21 22 23 24 25 26 27 28 29 30 31 32 33 34 35 36 37 38 39 40 41 42 43 44 45 46 47 48 49 50 51 52 53 54 55 56 57 58 59 60 61 62 63 64 65 66 67 68 69 70 71 72 73 74 75 76 77 78 79 80 81 82 83 84 85 86 87 88 89 90 91 92 93 94 95 96 97 98 99 100 101 102 103 104 105 106 107 108 109 110 111 112 113 114 115 116 117 118 119 120 121 122 123 124 125 126 127 128 129 130 131 132 133 134 135 136 137 138 139 140 141 142 143 144 145 146 147 148 149 150 151 152 153 154 155 156 157 158