Ergebnis 1 bis 1 von 1

Thema: Shirobako [JapDub][GerSub][720p/1080p][HDTV]-MU

Dieser Thread wurde noch nicht bewertet. Bewerte ihn doch, wenn er dir gefällt!
  1. #1
    Kami-sama Avatar von galudo
    Registriert seit
    Mar 2015
    Beiträge
    1.371
    Punkte
    26.024
    Errungenschaften:
    TomodachisTagger ProfiHyperaktivSenpaiGang Leader

    Shirobako [JapDub][GerSub][720p/1080p][HDTV]-MU

    Shirobako


    Kurzbeschreibung
    In ihrer High-School-Zeit bildeten die fünf Mädchen Aoi, Ema, Midori, Misa und Shizuka den Animationsklub ihrer Schule und produzierten bereits gemeinsam ihren ersten Anime. Sie alle teilten sich den Traum ihre Leidenschaft später einmal zum Beruf zu machen und als Profis schließlich auch wieder gemeinsam an einem Projekt beteiligt zu sein. Jetzt, über zwei Jahre später, haben es die Mädchen wirklich in die verschiedenen Bereiche der Anime-Industrie geschafft, müssen sich jetzt aber auch deren anstrengendem Alltag und den diversen Herausforderungen bei der Produktion eines Anime stellen.
    Format: MP4
    Sprache: Japanisch
    Untertitel: Deutsch
    Genre: Drama, Comedy, Slice of Life
    Größe bei 1080p: ~ 450 MB pro Folge | Gesamtgröße: 4,26 GB
    Größe bei 720p: ~ 300 MB pro Folge | Gesamtgröße: 2,17 GB
    Dauer: ~ 24 Minuten
    Jahr: 2014
    Video: 720p und 1080p
    Source: HDTV
    Subgroup / Releasegroup: MangaUnlimited
    Hoster: Share-Online | Uploaded
    Passwort: siehe unten


    Datei-Info
    Spoiler
    1080p
    Code:
    General
    Format                         : MPEG-4
    Format profile                 : Base Media
    Codec ID                       : isom
    File size                      : 462 MiB
    Duration                       : 24mn 42s
    Overall bit rate mode          : Variable
    Overall bit rate               : 2 617 Kbps
    Writing application            : My MP4Box GUI 0.6.0.6 <http://my-mp4box-gui.zymichost.com>
    
    Video
    ID                             : 1
    Format                         : AVC
    Format/Info                    : Advanced Video Codec
    Format profile                 : [email protected]
    Format settings, CABAC         : Yes
    Format settings, ReFrames      : 16 frames
    Codec ID                       : avc1
    Codec ID/Info                  : Advanced Video Coding
    Duration                       : 24mn 42s
    Bit rate                       : 2 485 Kbps
    Maximum bit rate               : 12.4 Mbps
    Width                          : 1 920 pixels
    Height                         : 1 080 pixels
    Display aspect ratio           : 16:9
    Frame rate mode                : Constant
    Frame rate                     : 23.976 fps
    Color space                    : YUV
    Chroma subsampling             : 4:2:0
    Bit depth                      : 8 bits
    Scan type                      : Progressive
    Bits/(Pixel*Frame)             : 0.050
    Stream size                    : 439 MiB (95%)
    Title                          : [AU] Shirobako - 01 ( 1920x1080 AAC x264 ) [XXX].mp4
    Writing library                : x264 core 142 r2431 ac76440
    Encoding settings              : cabac=1 / ref=16 / deblock=1:1:1 / analyse=0x3:0x133 / me=umh / subme=10 / psy=1 / psy_rd=0.40:0.00 / mixed_ref=1 / me_range=24 / chroma_me=1 / trellis=2 / 8x8dct=1 / cqm=0 / deadzone=21,11 / fast_pskip=0 / chroma_qp_offset=-2 / threads=12 / lookahead_threads=3 / sliced_threads=0 / nr=0 / decimate=1 / interlaced=0 / bluray_compat=0 / constrained_intra=0 / bframes=10 / b_pyramid=2 / b_adapt=2 / b_bias=0 / direct=3 / weightb=1 / open_gop=0 / weightp=2 / keyint=240 / keyint_min=23 / scenecut=40 / intra_refresh=0 / rc_lookahead=60 / rc=crf / mbtree=1 / crf=18.5 / qcomp=0.60 / qpmin=0 / qpmax=69 / qpstep=4 / ip_ratio=1.40 / aq=1:0.60
    
    Audio
    ID                             : 2
    Format                         : AAC
    Format/Info                    : Advanced Audio Codec
    Format profile                 : LC
    Codec ID                       : 40
    Duration                       : 24mn 42s
    Bit rate mode                  : Variable
    Bit rate                       : 128 Kbps
    Maximum bit rate               : 140 Kbps
    Channel(s)                     : 2 channels
    Channel positions              : Front: L R
    Sampling rate                  : 44.1 KHz
    Compression mode               : Lossy
    Stream size                    : 22.6 MiB (5%)

    720p
    Code:
    General
    Format                         : MPEG-4
    Format profile                 : Base Media
    Codec ID                       : isom
    File size                      : 289 MiB
    Duration                       : 24mn 42s
    Overall bit rate               : 1 637 Kbps
    Writing application            : My MP4Box GUI 0.6.0.6 <http://my-mp4box-gui.zymichost.com>
    
    Video
    ID                             : 1
    Format                         : AVC
    Format/Info                    : Advanced Video Codec
    Format profile                 : [email protected]
    Format settings, CABAC         : Yes
    Format settings, ReFrames      : 16 frames
    Codec ID                       : avc1
    Codec ID/Info                  : Advanced Video Coding
    Duration                       : 24mn 42s
    Bit rate                       : 1 186 Kbps
    Maximum bit rate               : 8 189 Kbps
    Width                          : 1 280 pixels
    Height                         : 720 pixels
    Display aspect ratio           : 16:9
    Frame rate mode                : Constant
    Frame rate                     : 23.976 fps
    Color space                    : YUV
    Chroma subsampling             : 4:2:0
    Bit depth                      : 8 bits
    Scan type                      : Progressive
    Bits/(Pixel*Frame)             : 0.054
    Stream size                    : 210 MiB (72%)
    Title                          : Shirobako - 01 RAW.264
    Writing library                : x264 core 142 r2431 ac76440
    Encoding settings              : cabac=1 / ref=16 / deblock=1:1:1 / analyse=0x3:0x133 / me=umh / subme=10 / psy=1 / psy_rd=0.40:0.00 / mixed_ref=1 / me_range=24 / chroma_me=1 / trellis=2 / 8x8dct=1 / cqm=0 / deadzone=21,11 / fast_pskip=0 / chroma_qp_offset=-2 / threads=12 / lookahead_threads=3 / sliced_threads=0 / nr=0 / decimate=1 / interlaced=0 / bluray_compat=0 / constrained_intra=0 / bframes=10 / b_pyramid=2 / b_adapt=2 / b_bias=0 / direct=3 / weightb=1 / open_gop=0 / weightp=2 / keyint=240 / keyint_min=23 / scenecut=40 / intra_refresh=0 / rc_lookahead=60 / rc=crf / mbtree=1 / crf=18.5 / qcomp=0.60 / qpmin=0 / qpmax=69 / qpstep=4 / ip_ratio=1.40 / aq=1:0.60
    
    Audio
    ID                             : 2
    Format                         : AC-3
    Format/Info                    : Audio Coding 3
    Mode extension                 : CM (complete main)
    Format settings, Endianness    : Big
    Codec ID                       : ac-3
    Duration                       : 24mn 42s
    Bit rate mode                  : Constant
    Bit rate                       : 448 Kbps
    Channel(s)                     : 2 channels
    Channel positions              : Front: L R
    Sampling rate                  : 44.1 KHz
    Bit depth                      : 16 bits
    Compression mode               : Lossy
    Stream size                    : 79.2 MiB (27%)
    Title                          : Shirobako - 01 RAW.ac3



    Folgen 09 / 24 online
    Folgen einzeln ladbar



    || Download & Passwort ||
    Geschützter Bereich - Bedanke dich beim Poster, um den Bereich sehen zu können
    Hier erfährst Du wie Du Dich bedanken kannst oder werde jetzt Premium Mitglied ab einer Spende von 5€ und erhalte sofortigen Zugriff auf den Downloadbereich!
    Geändert von galudo (21. April 2016 um 18:20 Uhr)
    SUPPORT UND REUP ANFRAGEN NUR >> [Links sind nur für registrierte und aktivierte Nutzer sichtbar. Klicke hier um dich zu registrieren.] <<
    Bitte IMMER den Thread-Link mitschicken.

  2. 35 Benutzer sagen Danke:

    Akazuna (9. March 2016),Androkai (13. October 2016),Beta (17. March 2016),Buschkilla (4. November 2015),Cheez (15. November 2016),Dalurin (7. November 2015),Denocide (16. February 2016),Gorbatschow (11. December 2015),hadis1000 (16. August 2016),hanismustismann (4. January 2016),Hedeki (23. October 2016),hraver (30. September 2015),hUmiLitY (4. December 2015),Kaffeesahne340 (3. November 2016),Kartox (30. September 2015),kazumamon (14. August 2016),LOL Meister (10. May 2016),manuel4193 (4. October 2015),MattDeox (5. January 2016),michael187 (8. November 2016),midnighter (30. September 2015),Miles360 (30. September 2015),Modell_Thomas (13. December 2015),Mosa (15. December 2015),MurphCrusher (17. January 2016),Nanatzusaya (30. September 2015),rekiznuh1 (25. October 2015),Ronae (30. September 2015),sharline (24. April 2016),Smitecrawler (19. April 2016),SONNYxq (5. June 2016),Spark (11. January 2016),tounho (5. January 2016),Usumaina (24. June 2016),Vice (1. October 2015)

Stichworte

Lesezeichen

Berechtigungen

  • Neue Themen erstellen: Nein
  • Themen beantworten: Nein
  • Anhänge hochladen: Nein
  • Beiträge bearbeiten: Nein
  •  

1 2 3 4 5 6 7 8 9 10 11 12 13 14 15 16 17 18 19 20 21 22 23 24 25 26 27 28 29 30 31 32 33 34 35 36 37 38 39 40 41 42 43 44 45 46 47 48 49 50 51 52 53 54 55 56 57 58 59 60 61 62 63 64 65 66 67 68 69 70 71 72 73 74 75 76 77 78 79 80 81 82 83 84 85 86 87 88 89 90 91 92 93 94 95 96 97 98 99 100 101 102 103 104 105 106 107 108 109 110 111 112 113 114 115 116 117 118 119 120 121 122 123 124 125 126 127 128 129 130 131 132 133 134 135 136 137 138 139 140 141 142 143 144 145 146 147 148 149 150 151 152 153 154 155 156 157 158