Ergebnis 1 bis 2 von 2

Thema: Shouwa Genroku Rakugo Shinjuu (2016) [Laufend][Jap-Dub][Ger-Sub][720p][HDTV] - Saru

Dieser Thread wurde noch nicht bewertet. Bewerte ihn doch, wenn er dir gefällt!
  1. #1
    Kami-sama Avatar von galudo
    Registriert seit
    Mar 2015
    Beiträge
    1.370
    Punkte
    25.977
    Errungenschaften:
    TomodachisTagger ProfiHyperaktivSenpaiGang Leader

    Shouwa Genroku Rakugo Shinjuu (2016) [Laufend][Jap-Dub][Ger-Sub][720p][HDTV] - Saru

    Shouwa Genroku Rakugo Shinjuu (2016)
    昭和元禄落語心中
    Showa Genroku Rakugo Shinju



    Kurzbeschreibung
    Als Yotaro aus dem Gefängnis entlassen wird, weiß er noch nicht, was ihn von nun an erwarten wird. Nur eines weiß er: Welchen Ort er zuerst aufsuchen wird. Dort angekommen, findet er sich bei dem Künstler Yakumo wieder, wo er sich vor Jahren in eine traditionelle Geschichte namens Shinigami verliebte. Yotaru ist fest entschlossen, Yakumos Lehrling zu werden. Zu jedermanns Überraschung nimmt dieser den Ex-Sträfling sogar an, obwohl er bisher noch niemanden in seinem ganzen Leben als Lehrling akzeptiert hatte.

    Yotaro beginnt nun glücklich mit seinem neuen Leben. Er trifft auf viele weitere Menschen, unter anderem auf ein Mädchen namens Konatsu. Konatsu ist die Tochter eines berühmten Geschichtenerzählers, von dem auch die Geschichte Shinigami stammt. Yakumo nahm sie nach dem schrecklichsten Tag in ihrem Leben auf – dem Tag, als ihr Vater starb. Sie liebte die Geschichten ihres Vaters und würde auch gerne den Beruf des Künstlers ergreifen, doch diesen dürfen Frauen nicht ausüben.
    Format: MP4
    Sprache: Japanisch
    Untertitel: Deutsch
    Genre: Alltagsleben, Comedy, Drama, Historisch, Romanze, Slapstick
    Größe: ~ 500 MB pro Folge | Gesamtgröße: 0,53 GB
    Dauer: ~ 45 Minuten
    Jahr: 2016
    Video: 720p
    Source: HDTV
    Subgroup / Releasegroup: Saru-Subs

    Hoster: Share-Online | Uploaded
    Passwort: siehe unten


    Datei-Info
    Spoiler
    Code:
    General
    Complete name                  : Shouwa Genroku Rakugo Shinjuu - 01.mp4
    Format                         : MPEG-4
    Format profile                 : Base Media
    Codec ID                       : isom
    File size                      : 533 MiB
    Duration                       : 47mn 57s
    Overall bit rate mode          : Variable
    Overall bit rate               : 1 554 Kbps
    Encoded date                   : UTC 2016-03-13 06:19:55
    Tagged date                    : UTC 2016-03-13 06:19:55
    
    Video
    ID                             : 1
    Format                         : AVC
    Format/Info                    : Advanced Video Codec
    Format profile                 : [email protected]
    Format settings, CABAC         : Yes
    Format settings, ReFrames      : 5 frames
    Codec ID                       : avc1
    Codec ID/Info                  : Advanced Video Coding
    Duration                       : 47mn 56s
    Bit rate                       : 1 359 Kbps
    Maximum bit rate               : 5 565 Kbps
    Width                          : 1 280 pixels
    Height                         : 720 pixels
    Display aspect ratio           : 16:9
    Frame rate mode                : Constant
    Frame rate                     : 23.976 fps
    Color space                    : YUV
    Chroma subsampling             : 4:2:0
    Bit depth                      : 8 bits
    Scan type                      : Progressive
    Bits/(Pixel*Frame)             : 0.062
    Stream size                    : 466 MiB (87%)
    Writing library                : x264 core 148 r2638 7599210
    Encoding settings              : cabac=1 / ref=6 / deblock=1:0:0 / analyse=0x3:0x133 / me=umh / subme=10 / psy=1 / psy_rd=1.00:0.00 / mixed_ref=1 / me_range=24 / chroma_me=1 / trellis=2 / 8x8dct=1 / cqm=0 / deadzone=21,11 / fast_pskip=0 / chroma_qp_offset=-2 / threads=12 / lookahead_threads=3 / sliced_threads=0 / nr=0 / decimate=1 / interlaced=0 / bluray_compat=0 / constrained_intra=0 / bframes=10 / b_pyramid=1 / b_adapt=2 / b_bias=1 / direct=3 / weightb=1 / open_gop=0 / weightp=2 / keyint=240 / keyint_min=23 / scenecut=40 / intra_refresh=0 / rc_lookahead=60 / rc=crf / mbtree=1 / crf=16.0 / qcomp=0.60 / qpmin=0 / qpmax=69 / qpstep=4 / vbv_maxrate=62500 / vbv_bufsize=78125 / crf_max=0.0 / nal_hrd=none / filler=0 / ip_ratio=1.40 / aq=1:1.00
    Encoded date                   : UTC 2016-03-13 06:19:55
    Tagged date                    : UTC 2016-03-13 06:20:37
    
    Audio
    ID                             : 2
    Format                         : AAC
    Format/Info                    : Advanced Audio Codec
    Format profile                 : LC
    Codec ID                       : 40
    Duration                       : 47mn 57s
    Bit rate mode                  : Variable
    Bit rate                       : 192 Kbps
    Maximum bit rate               : 240 Kbps
    Channel(s)                     : 2 channels
    Channel positions              : Front: L R
    Sampling rate                  : 48.0 KHz
    Compression mode               : Lossy
    Stream size                    : 65.5 MiB (12%)
    Language                       : new
    Encoded date                   : UTC 2016-03-13 01:54:44
    Tagged date                    : UTC 2016-03-13 06:20:37


    Folgen 01 / 13 online
    Folgen einzeln ladbar



    || Download & Passwort ||


    Geschützter Bereich - Bedanke dich beim Poster, um den Bereich sehen zu können
    Hier erfährst Du wie Du Dich bedanken kannst oder werde jetzt Premium Mitglied ab einer Spende von 5€ und erhalte sofortigen Zugriff auf den Downloadbereich!

    Geändert von galudo (12. October 2016 um 18:28 Uhr)
    SUPPORT UND REUP ANFRAGEN NUR >> [Links sind nur für registrierte und aktivierte Nutzer sichtbar. Klicke hier um dich zu registrieren.] <<
    Bitte IMMER den Thread-Link mitschicken.

  2. 8 Benutzer sagen Danke:

    AKira_Hidaka (2. April 2016),Asuka Langley (25. April 2016),DJPAUL1990 (28. March 2016),Frag0042 (17. March 2016),hanismustismann (10. April 2016),Kosuda-kun (10. April 2016),MugiwaraChaos (8. May 2016),Suigetsu (17. March 2016)

  3. #2
    Erfahrener Otaku Avatar von DjRayleigh
    Registriert seit
    Jul 2015
    Beiträge
    195
    Punkte
    2.962
    Errungenschaften:
    1000 ErfahrungspunkteHyperaktivErste GruppeTomodachisSenpai

    AW: Shouwa Genroku Rakugo Shinjuu (2016) [Laufend][Jap-Dub][Ger-Sub][720p][HDTV] - Saru


    Shouwa Genroku Rakugo Shinjuu
    Showa Genroku Rakugo Shinju







    Kurzbeschreibung:
    Als Yotaro aus dem Gefängnis entlassen wird, weiß er noch nicht, was ihn von nun an erwarten wird. Nur eines weiß er: Welchen Ort er zuerst aufsuchen wird. Dort angekommen, findet er sich bei dem Künstler Yakumo wieder, wo er sich vor Jahren in eine traditionelle Geschichte namens Shinigami verliebte. Yotaru ist fest entschlossen, Yakumos Lehrling zu werden. Zu jedermanns Überraschung nimmt dieser den Ex-Sträfling sogar an, obwohl er bisher noch niemanden in seinem ganzen Leben als Lehrling akzeptiert hatte.

    Yotaro beginnt nun glücklich mit seinem neuen Leben. Er trifft auf viele weitere Menschen, unter anderem auf ein Mädchen namens Konatsu. Konatsu ist die Tochter eines berühmten Geschichtenerzählers, von dem auch die Geschichte Shinigami stammt. Yakumo nahm sie nach dem schrecklichsten Tag in ihrem Leben auf – dem Tag, als ihr Vater starb. Sie liebte die Geschichten ihres Vaters und würde auch gerne den Beruf des Künstlers ergreifen, doch diesen dürfen Frauen nicht ausüben.


    Spieldauer: 26min
    Genre: Drama
    Nebengenres: Alltagsleben, Drama, Komödie, Romanze
    Jahr: 2016
    Sprache: Japanisch
    Untertitel: Deutsch
    Größe pro Folge: ~541 MiB
    Episodenanzahl: 5 /13
    Format: MP4
    Auflösung: 720p (16:9)
    Videocodec: x264 (AVC)
    Audiocodec: AAC
    Releasegruppe: Saru-Subs
    Hoster: Share-Online, Uploaded


    MediaInfo
    Code:
    
    Format                                   : MPEG-4
    Format profile                           : Base Media
    Codec ID                                 : isom
    File size                                : 541 MiB
    Duration                                 : 47mn 57s
    Overall bit rate mode                    : Variable
    Overall bit rate                         : 1 576 Kbps
    Encoded date                             : UTC 2016-03-21 00:42:24
    Tagged date                              : UTC 2016-03-21 00:42:24
    
    Video
    ID                                       : 1
    Format                                   : AVC
    Format/Info                              : Advanced Video Codec
    Format profile                           : [email protected]
    Format settings, CABAC                   : Yes
    Format settings, ReFrames                : 5 frames
    Codec ID                                 : avc1
    Codec ID/Info                            : Advanced Video Coding
    Duration                                 : 47mn 56s
    Bit rate                                 : 1 382 Kbps
    Maximum bit rate                         : 5 532 Kbps
    Width                                    : 1 280 pixels
    Height                                   : 720 pixels
    Display aspect ratio                     : 16:9
    Frame rate mode                          : Constant
    Frame rate                               : 23.976 fps
    Color space                              : YUV
    Chroma subsampling                       : 4:2:0
    Bit depth                                : 8 bits
    Scan type                                : Progressive
    Bits/(Pixel*Frame)                       : 0.063
    Stream size                              : 474 MiB (88%)
    Writing library                          : x264 core 148 r2638 7599210
    Encoding settings                        : cabac=1 / ref=6 / deblock=1:0:0 / analyse=0x3:0x133 / me=umh / subme=10 / psy=1 / psy_rd=1.00:0.00 / mixed_ref=1 / me_range=24 / chroma_me=1 / trellis=2 / 8x8dct=1 / cqm=0 / deadzone=21,11 / fast_pskip=0 / chroma_qp_offset=-2 / threads=12 / lookahead_threads=3 / sliced_threads=0 / nr=0 / decimate=1 / interlaced=0 / bluray_compat=0 / constrained_intra=0 / bframes=10 / b_pyramid=1 / b_adapt=2 / b_bias=1 / direct=3 / weightb=1 / open_gop=0 / weightp=2 / keyint=240 / keyint_min=23 / scenecut=40 / intra_refresh=0 / rc_lookahead=60 / rc=crf / mbtree=1 / crf=16.0 / qcomp=0.60 / qpmin=0 / qpmax=69 / qpstep=4 / vbv_maxrate=62500 / vbv_bufsize=78125 / crf_max=0.0 / nal_hrd=none / filler=0 / ip_ratio=1.40 / aq=1:1.00
    Encoded date                             : UTC 2016-03-21 00:42:24
    Tagged date                              : UTC 2016-03-21 00:42:48
    
    Audio
    ID                                       : 2
    Format                                   : AAC
    Format/Info                              : Advanced Audio Codec
    Format profile                           : LC
    Codec ID                                 : 40
    Duration                                 : 47mn 57s
    Bit rate mode                            : Variable
    Bit rate                                 : 192 Kbps
    Maximum bit rate                         : 244 Kbps
    Channel(s)                               : 2 channels
    Channel positions                        : Front: L R
    Sampling rate                            : 48.0 KHz
    Compression mode                         : Lossy
    Stream size                              : 65.5 MiB (12%)
    Language                                 : Japanese
    Encoded date                             : UTC 2016-03-20 19:33:59
    Tagged date                              : UTC 2016-03-21 00:42:48
    
    


    INFO:
    Folge 1 Version 2




    [Links sind nur für registrierte und aktivierte Nutzer sichtbar. Klicke hier um dich zu registrieren.]

    Passwort: *Nicht Vorhanden*


    [Links sind nur für registrierte und aktivierte Nutzer sichtbar. Klicke hier um dich zu registrieren.]
    Geändert von DjRayleigh (23. April 2016 um 04:18 Uhr) Grund: Beschreibung

    [Links sind nur für registrierte und aktivierte Nutzer sichtbar. Klicke hier um dich zu registrieren.]
    Support über PN
    =
    AKTIV

  4. 1 Benutzer sagt Danke:

    DJPAUL1990 (1. May 2016)

Lesezeichen

Berechtigungen

  • Neue Themen erstellen: Nein
  • Themen beantworten: Nein
  • Anhänge hochladen: Nein
  • Beiträge bearbeiten: Nein
  •  

1 2 3 4 5 6 7 8 9 10 11 12 13 14 15 16 17 18 19 20 21 22 23 24 25 26 27 28 29 30 31 32 33 34 35 36 37 38 39 40 41 42 43 44 45 46 47 48 49 50 51 52 53 54 55 56 57 58 59 60 61 62 63 64 65 66 67 68 69 70 71 72 73 74 75 76 77 78 79 80 81 82 83 84 85 86 87 88 89 90 91 92 93 94 95 96 97 98 99 100 101 102 103 104 105 106 107 108 109 110 111 112 113 114 115 116 117 118 119 120 121 122 123 124 125 126 127 128 129 130 131 132 133 134 135 136 137 138 139 140 141 142 143 144 145 146 147 148 149 150 151 152 153 154 155 156 157 158